ДОКАЗАТЕЛЬСТВО / Proof / Сезон: 1 / Серии: 1-10 из 10 (Алекс Грейвз) [2015, Драма, WEB-DLRip] (VO : EtvoxTV) (Original)

Ответить на тему
 

lector_87 ®

Стаж: 3 года 7 месяцев

Сообщений: 391

Симпатии: 348

ДОКАЗАТЕЛЬСТВО/Proof-- Год выпуска: 2015
Страна: США, Канада
Жанр: Драма
Продолжительность: 00:43:00--Перевод: Профессиональный одноголосый закадровый EtvoxTV
Режиссёр: Алекс Грейвз--В ролях: Дженнифер Билз, Мэттью Модайн, Джо Мортон, Каллум Блу, Эди Гатеги, Чела Хорсдэл, Бриттни Уилсон, Джоанна Ньюмарк, Энни Турман, Элисон Арая--Описание: Описание: История о женщине-хирурге по имени Кэтрин. Один миллиардер уговаривает ее заняться исследованием случаев реинкарнации, клинической смерти и призраков - все это, чтобы ответить на один вопрос: смерть - это действительно конец, или есть еще что-то после нее?--Качество: WEB-DLRip
Формат: AVI
Видео кодек: XviD
Аудио кодек: MP3
Видео: XviD, 720x400 (16:9), 23,976 fps, ~1500 kbps
Аудио Rus: MP3, 48 kHz, 2 ch, 128 kbps
Аудио Eng: MP3, 48 kHz, 2 ch, 128 kbps
Субтитры: отсутствуют--

MediaInfo

Формат : AVI
Формат/Информация : Audio Video Interleave
Размер файла : 551 Мбайт
Продолжительность : 43 м.
Общий поток : 1781 Кбит/сек
Программа кодирования : VirtualDubMod 1.5.10.3 (build 2550/release)
Библиотека кодирования : VirtualDubMod build 2550/release
Видео
Идентификатор : 0
Формат : MPEG-4 Visual
Профиль формата : Advanced [email protected]
Параметр BVOP формата : 1
Параметр QPel формата : Нет
Параметр GMC формата : Без точки перехода
Параметр матрицы формата : Default (H.263)
Идентификатор кодека : XVID
Идентификатор кодека/Подсказка : XviD
Продолжительность : 43 м.
Битрейт : 1512 Кбит/сек
Ширина : 720 пикселей
Высота : 400 пикселей
Соотношение сторон : 16:9
Частота кадров : 23,976 кадра/сек
Цветовое пространство : YUV
Субдискретизация насыщенности : 4:2:0
Битовая глубина : 8 бит
Тип развёртки : Прогрессивная
Метод сжатия : С потерями
Бит/(Пиксели*Кадры) : 0.219
Размер потока : 467 Мбайт (85%)
Библиотека кодирования : XviD 73
Аудио #1
Идентификатор : 1
Формат : MPEG Audio
Версия формата : Version 1
Профиль формата : Layer 3
Режим : Joint stereo
Идентификатор кодека : 55
Идентификатор кодека/Подсказка : MP3
Продолжительность : 43 м.
Вид битрейта : Постоянный
Битрейт : 128 Кбит/сек
Каналы : 2 канала
Частота : 48,0 КГц
Метод сжатия : С потерями
Размер потока : 39,6 Мбайт (7%)
Выравнивание : Соединение по промежуткам
Продолжительность промежутка : 42 мс. (1,00 видеокадр)
Время предзагрузки промежутка : 504 мс.
Аудио #2
Идентификатор : 2
Формат : MPEG Audio
Версия формата : Version 1
Профиль формата : Layer 3
Режим : Joint stereo
Расширение режима : MS Stereo
Идентификатор кодека : 55
Идентификатор кодека/Подсказка : MP3
Продолжительность : 43 м.
Вид битрейта : Постоянный
Битрейт : 128 Кбит/сек
Каналы : 2 канала
Частота : 48,0 КГц
Метод сжатия : С потерями
Размер потока : 39,6 Мбайт (7%)
Выравнивание : Соединение по промежуткам
Продолжительность промежутка : 42 мс. (1,00 видеокадр)
Время предзагрузки промежутка : 504 мс.

Скриншоты




Релиз

Текст: Юлия Поспелова
Редактор текста: Анастасия Глушкова
Текст читал: Александр Якименко
Монтаж видео и сведения звука: Дмитрий Кузнецов

Внимание! Раздача ведётся путём добавления новых серий

Внимание! Раздача ведётся путём добавления новых серий; при каждом добавлении создаётся новый торрент. Чтобы начать докачку новой серии, пользователям необходимо сделать следующее:
(1) остановить скачивание,
(2) удалить старый торрент у себя из клиента (старые серии удалять не надо),
(3) скачать новый торрент и запустить его у себя в клиенте вместо старого, при этом указать клиенту путь в старую папку куда и должно происходить скачивание новых серий.
Ваш клиент при этом должен произвести хеширование (проверку) старой папки (если не производит сам - помогите ему сделать это), и будет докачивать только те серии которых у вас ещё нет. Старые серии при этом не удаляются, а продолжают раздаваться!
Eсли вы уже удалили старые серии, то предотвратить повторную закачку старых серий можно, отжав галочку в соответствующих местах при запуске нового торрента. По возможности, желательно не удалять старые серии как можно дольше чтобы релизёр не столько продолжал раздавать старые серии, а смог сконцентрироваться на новых.


Последний раз редактировалось: lector_87 (2015-11-15 00:50), всего редактировалось 9 раз(а)

Создавать темы 29-Июн-2015 19:29

[Профиль]  [ЛС] 

lector_87 ®

Стаж: 3 года 7 месяцев

Сообщений: 391

Симпатии: 348

Исправлены ошибки рассинхронизации видео и звука

Создавать темы 29-Июн-2015 19:29

[Профиль]  [ЛС] 

lector_87 ®

Стаж: 3 года 7 месяцев

Сообщений: 391

Симпатии: 348

2 и 3 серии добавлены от студии озвучки Etvox Film

Создавать темы 12-Авг-2015 22:05

[Профиль]  [ЛС] 

lector_87 ®

Стаж: 3 года 7 месяцев

Сообщений: 391

Симпатии: 348

4-8 серии добавлены от студии озвучки Етвох Филм

Создавать темы 04-Окт-2015 23:58

[Профиль]  [ЛС] 
Показать сообщения:    
Ответить на тему

Текущее время: 20-Сен 12:34

Часовой пояс: UTC + 5



Вы не можете начинать темы
Вы не можете отвечать на сообщения
Вы не можете редактировать свои сообщения
Вы не можете удалять свои сообщения
Вы не можете голосовать в опросах
Вы не можете прикреплять файлы к сообщениям
Вы не можете скачивать файлы