Мужество в бою / Courage Under Fire (Эдвард Цвик) [1996, США, Триллер, драма, детектив, военный, HDRip] (MVO)

Ответить на тему
 

Decadence ®

Стаж: 5 лет

Сообщений: 65

Симпатии: 32

Мужество в бою / Courage Under Fire
Страна: США
Жанр: Триллер, драма, детектив, военный
Год выпуска: 1996
Продолжительность: 01:56:27
Перевод: Профессиональный (многоголосый закадровый)
Cубтитры: нет
Режиссер: Эдвард Цвик
В ролях: Дензел Вашингтон, Мег Райан, Лу Даймонд Филлипс, Майкл Мориарти, Мэтт Дэймон, Бронсон Пиншо, Сет Гиллиам, Реджина Тейлор, Желько Иванек, Скотт Гленн
Описание: Февраль 1991 года. Мир следит за войной в Персидском Заливе. Полковник Серлинг, командир танкового подразделения, совершает страшную ошибку во время ночной атаки, в результате чего погибают американские военнослужащие. Начальство решает замять это дело и отправляет Серлинга на бумажную работу в Пентагон.
Ему поручают проверить, годится ли кандидат на Медаль Почета Конгресса, капитан Карен Уолден, для вручения этой награды за проявленное ею «мужество в бою». В ходе расследования честный служака натыкается на множество фактов, которые военное командование США хотело бы скрыть.
 
Качество видео: HDRip
Формат видео: AVI
Видео: XviD, 640x304, 23.976 fps, 759 kbps
Аудио: MP3, 48.0 KHz, 2 channels, 128 kbps

MediaInfo

General
Complete name : Courage Under Fire.avi
Format : AVI
Format/Info : Audio Video Interleave
File size : 746 MiB
Duration : 1h 56mn
Overall bit rate : 896 Kbps
Writing application : VirtualDubModRus 1.5.10.2 (build 2542/release)
Writing library : VirtualDubMod build 2542/release
Video #0
ID : 0
Format : MPEG-4 Visual
Format profile : Advanced [email protected]
Format settings, BVOP : 1
Format settings, QPel : No
Format settings, GMC : No warppoints
Format settings, Matrix : Custom
Codec ID : XVID
Codec ID/Hint : XviD
Duration : 1h 56mn
Bit rate : 759 Kbps
Width : 640 pixels
Height : 304 pixels
Display aspect ratio : 2.105
Frame rate : 23.976 fps
Color space : YUV
Chroma subsampling : 4:2:0
Bit depth : 8 bits
Scan type : Progressive
Compression mode : Lossy
Bits/(Pixel*Frame) : 0.163
Stream size : 632 MiB (85%)
Writing library : XviD 1.2.0.dev47 (UTC 2006-11-01)
Audio #1
ID : 1
Format : MPEG Audio
Format version : Version 1
Format profile : Layer 3
Codec ID : 55
Codec ID/Hint : MP3
Duration : 1h 56mn
Bit rate mode : Constant
Bit rate : 128 Kbps
Channel(s) : 2 channels
Sampling rate : 48.0 KHz
Compression mode : Lossy
Stream size : 107 MiB (14%)
Alignment : Aligned on interleaves
Interleave, duration : 42 ms (1.00 video frame)
Interleave, preload duration : 504 ms
Writing library : LAME3.97
Encoding settings : -m s -V 4 -q 2 -lowpass 17 -b 128

Скриншот c названием фильма

Скриншоты



Создавать темы 01-Июл-2015 13:23

[Профиль]  [ЛС] 
Показать сообщения:    
Ответить на тему

Текущее время: 24-Сен 19:07

Часовой пояс: UTC + 5



Вы не можете начинать темы
Вы не можете отвечать на сообщения
Вы не можете редактировать свои сообщения
Вы не можете удалять свои сообщения
Вы не можете голосовать в опросах
Вы не можете прикреплять файлы к сообщениям
Вы не можете скачивать файлы