Прямая и явная угроза / Clear and Present Danger (Филлип Нойс) [1994, США, Боевик, триллер, драма, криминал, HDRip] (MVO)

Ответить на тему
 

Decadence ®

Стаж: 5 лет 1 месяц

Сообщений: 65

Симпатии: 32

Прямая и явная угроза / Clear and Present Danger
Страна: США
Жанр: Боевик, триллер, драма, криминал
Год выпуска: 1994
Продолжительность: 02:21:16
Перевод: Профессиональный (многоголосый закадровый)
Cубтитры: нет
Режиссер: Филлип Нойс
В ролях: Харрисон Форд, Уиллем Дефо, Энн Арчер, Жоаким ди Алмейда, Генри Черни, Харрис Юлин, Дональд Моффет, Мигель Сандовал, Бенджамин Брэтт, Рэймонд Крус
Описание: Джек Райан на этот раз оказывается во главе отдела разведки ЦРУ, и вхож в Овальный кабинет Белого Дома. Он вынужден бороться против колумбийских наркодельцов, не ведая, что при попустительстве президента США его помощник по национальной безопасности и шеф ЦРУ проводят, с помощью наемников, боевые операции в Колумбии.
 
Качество видео: HDRip
Формат видео: AVI
Видео: XviD, 688x282, 23.976 fps, 629 kbps
Аудио: MP3, 48.0 KHz, 2 channels, 128 kbps

MediaInfo

General
Complete name : Clear And Present Danger.avi
Format : AVI
Format/Info : Audio Video Interleave
File size : 774 MiB
Duration : 2h 21mn
Overall bit rate : 766 Kbps
Writing application : VirtualDubMod 1.5.10.2 (build 2540/release)
Writing library : VirtualDubMod build 2540/release
Video #0
ID : 0
Format : MPEG-4 Visual
Format profile : Advanced [email protected]
Format settings, BVOP : 1
Format settings, QPel : No
Format settings, GMC : No warppoints
Format settings, Matrix : Default (H.263)
Codec ID : XVID
Codec ID/Hint : XviD
Duration : 2h 21mn
Bit rate : 629 Kbps
Width : 688 pixels
Height : 282 pixels
Display aspect ratio : 2.25:1
Frame rate : 23.976 fps
Color space : YUV
Chroma subsampling : 4:2:0
Bit depth : 8 bits
Scan type : Progressive
Compression mode : Lossy
Bits/(Pixel*Frame) : 0.125
Stream size : 635 MiB (82%)
Writing library : XviD 1.2.1 (UTC 2008-12-04)
Audio #1
ID : 1
Format : MPEG Audio
Format version : Version 1
Format profile : Layer 3
Codec ID : 55
Codec ID/Hint : MP3
Duration : 2h 21mn
Bit rate mode : Constant
Bit rate : 128 Kbps
Channel(s) : 2 channels
Sampling rate : 48.0 KHz
Compression mode : Lossy
Stream size : 129 MiB (17%)
Alignment : Aligned on interleaves
Interleave, duration : 42 ms (1.00 video frame)
Interleave, preload duration : 504 ms
Writing library : LAME3.98r
Encoding settings : -m s -V 4 -q 2 -lowpass 17 -b 128

Скриншот c названием фильма

Скриншоты





Последний раз редактировалось: Decadence (2015-07-01 20:50), всего редактировалось 1 раз

Создавать темы 01-Июл-2015 13:34

[Профиль]  [ЛС] 
Показать сообщения:    
Ответить на тему

Текущее время: 24-Окт 01:58

Часовой пояс: UTC + 5



Вы не можете начинать темы
Вы не можете отвечать на сообщения
Вы не можете редактировать свои сообщения
Вы не можете удалять свои сообщения
Вы не можете голосовать в опросах
Вы не можете прикреплять файлы к сообщениям
Вы не можете скачивать файлы