Проси меня о чём угодно / Ask Me Anything (Эллисон Бернетт) [2014, США, Драма, WEB-DLRip] (VO)

Ответить на тему
 

Davron1402 ®

Стаж: 3 года 7 месяцев

Сообщений: 136

Симпатии: 122

Проси меня о чём угодно / Ask Me Anything- Страна: США
Жанр: Драма
Год выпуска: 2014
Продолжительность: 01:38:41
Перевод: Одноголосый закадровый
Cубтитры: нет
Режиссер: Эллисон Бернетт
В ролях: Бритт Робертсон, Джастин Лонг, Кристиан Слэйтер, Роберт Патрик, Мартин Шин, Молли Хэйгэн, Зулейха Робинсон, Кимберли Уильямс, Макс Карвер, Джиа Мантенья, Шэрон Оми, Макс Хоффман, Беатрис Розен, Кэтрин де Прюм, Лоррэйн Туссэйнт
Описание: Кэти Кэмпенфелт (Бритт Робертсон) берет годичные каникулы перед тем как поступить в колледж. Для мамы и учителей она мотивирует свой поступок тем, что пока не готова сделать выбор дальнейшего жизненного пути. Взрослые дают согласие, но при условии, что она найдет себе работу, чтобы не бездельничать и станет вести блог, чтобы развивать свою речь и погрузиться в самоанализ. В блоге, который Кэти решает сделать анонимным, девушка изливает его читателям все свои самые сокровенные тайны и чувства, включая подробности интимных отношений сразу с несколькими мужчинами разного возраста...-Качество видео: WEB-DLRip
Формат видео: AVI
Видео: MPEG-4 Visual, 720 x 405 (16:9), 23.976 fps, 1 562 Kbps
Аудио: MPEG Audio, 48.0 KHz, 2 channels, 128 Kbps- 

MediaInfo

Имя файла: Ask Me Anything (2014) rus.avi
Формат файла: .avi (AVI)
Размер файла: 1.17 GB
Длительность: 1h 38mn
Навигация по главам: Нет
Bitrate (все потоки): 1 700 Kbps
Тип потока: Альбом
Тип потока: Видео
Длительность: 01:38:41
Кодек: MPEG-4 Visual
Кодек/Профиль: [email protected]
Кодек/ID: XVID
Размеры изображения: 720 x 405 (16:9)
Частота кадров: 23.976 fps
Размер потока: 1.08 GiB (92%)
Битрейт: 1 562 Kbps
Библиотека кодирования: Lavc56.13.100
Цветовое пространство: YUV
Тип развёртки: Progressive
Глубина: 8 bits
Тип потока: Звук #1
Длительность: 01:38:41.448
Кодек: MPEG Audio
Кодек/Профиль: Layer 3
Кодек/ID: 55
Частота дискретизации: 48.0 KHz
Каналов: 2 channels
Битрейт: 128 Kbps
Битрейт/тип: Constant
Размер потока: 90.4 MiB (8%)
Метод сжатия: Lossy

Скриншоты





Последний раз редактировалось: Davron1402 (2015-07-01 20:45), всего редактировалось 2 раз(а)

Создавать темы 01-Июл-2015 14:56

[Профиль]  [ЛС] 

Davron1402 ®

Стаж: 3 года 7 месяцев

Сообщений: 136

Симпатии: 122

готов уже проверите

Создавать темы 01-Июл-2015 14:58

[Профиль]  [ЛС] 
Показать сообщения:    
Ответить на тему

Текущее время: 22-Авг 18:07

Часовой пояс: UTC + 5



Вы не можете начинать темы
Вы не можете отвечать на сообщения
Вы не можете редактировать свои сообщения
Вы не можете удалять свои сообщения
Вы не можете голосовать в опросах
Вы не можете прикреплять файлы к сообщениям
Вы не можете скачивать файлы