Виновный / Guilty (Джилл Вонг) [2014, Гонконг, драма, мелодрама, HDRip] (VO)

Ответить на тему
 

Davron1402 ®

Стаж: 3 года 9 месяцев

Сообщений: 136

Симпатии: 122

Виновный / Guilty- Страна: Гонконг
Жанр: драма, мелодрама
Год выпуска: 2014
Продолжительность: 01:42:25
Перевод: Одноголосый закадровый
Cубтитры: нет
Режиссер: Джилл Вонг
В ролях: Лью Кай Чи, Пак-хо Чау, Лидди Ли
Описание: Киллер Джек медленно бродил в районе красных фонарей. Как он ходил по аллее, все боялись смотреть на него из-за его чрезвычайно уродливого лица. Тин Тин была всего лишь проституткой, которая не отвергала его. Джек находит шрам на животе Тин Тин, который был следом от выстрела. Тин Тин, с другой стороны смотрит на ужасное лицо Джека , не показывая никаких признаков страха. Они вместе быстро образуют связь и Джек не может оставить в покое Тин Тин. Он решает забрать Тин Тин из ее несчастной жизни любой ценой. С тех пор их жизнь резко меняется.-Качество видео: HDRip
Формат видео: AVI
Видео: MPEG-4 Visual, 720 x 304 (2.35:1), 24.000 fps, 1 631 Kbps
Аудио: AC-3, 48.0 KHz, 6 channels, 384 Kbps-

MediaInfo

Имя файла: Guilty.2014.L1.HDRip.avi
Формат файла: .avi (AVI)
Размер файла: 1.45 GB
Длительность: 1h 42mn
Навигация по главам: Нет
Bitrate (все потоки): 2 024 Kbps
Название: Guilty.2014.L1.HDRip
Тип потока: Видео
Длительность: 01:42:25
Кодек: MPEG-4 Visual
Кодек/Профиль: Advanced [email protected]
Кодек/ID: XVID
Размеры изображения: 720 x 304 (2.35:1)
Частота кадров: 24.000 fps
Размер потока: 1.17 GiB (81%)
Битрейт: 1 631 Kbps
Библиотека кодирования: XviD 73
Цветовое пространство: YUV
Тип развёртки: Progressive
Глубина: 8 bits
Тип потока: Звук #1
Длительность: 01:42:25.547
Кодек: AC-3
Кодек/ID: 2000
Частота дискретизации: 48.0 KHz
Каналов: 6 channels
Битрейт: 384 Kbps
Битрейт/тип: Constant
Размер потока: 281 MiB (19%)
Глубина: 16 bits
Метод сжатия: Lossy

Скриншоты




Создавать темы 01-Июл-2015 23:08

[Профиль]  [ЛС] 
Показать сообщения:    
Ответить на тему

Текущее время: 23-Окт 01:40

Часовой пояс: UTC + 5



Вы не можете начинать темы
Вы не можете отвечать на сообщения
Вы не можете редактировать свои сообщения
Вы не можете удалять свои сообщения
Вы не можете голосовать в опросах
Вы не можете прикреплять файлы к сообщениям
Вы не можете скачивать файлы