Наруто: Последний фильм / The Last: Naruto the Movie (Цунэо Кобаяси) [Movie] [RUS(int)] [без хардсаба] [2014 г., приключения, комедия, боевые искусства, сёнэн, WEB-DLRip]

Ответить на тему
 

Mrblack ®

Стаж: 6 лет 5 месяцев

Сообщений: 247

Симпатии: 52

--Наруто: Последний фильм
The Last: Naruto the Movie
-- Год выпуска: 2014
Страна: Япония
Режиссёр:Цунэо Кобаяси.
Жанр: Приключения, комедия, боевые искусства, сёнэн
Продолжительность: 1:51:54
Перевод:Полное дублирование от Reanimedia
Студия:Студия: Studio Pierrot--Описание: Описание:Спустя годы после событий Четвертой Мировой Войны Луна, в которую давным-давно Рикудо Сэннин запечатал Гэдо Мазо, начинает приближаться к Земле, угрожая превратиться в метеор и уничтожить все живое. В это нелегкое время таинственный человек, обладающий бьякуганом, похищает сестру Хинаты, Ханаби. И теперь уже взрослые Наруто и его друзья отправляются, чтобы спасти Ханаби и принять участие в финальной битве, которая решит судьбу всего мира!--Качество: WEB-DLRip
Формат: AVI
Тип видео: без хардсаба--Видео кодек: XVID
Аудио кодек: AС3
Видео: Xvid; 720x384; 1475Kbps, 24fps
Аудио: RUS, AС3; 44100Hz; 384Kbps (6ch)--

MediaInfo

Полное имя : D:\Zona Downloads\The Last Naruto The Movie.2015.WEB-DLRip.avi
Формат : AVI
Формат/Информация : Audio Video Interleave
Размер файла : 1,46 Гбайт
Продолжительность : 1 ч. 51 м.
Общий поток : 1868 Кбит/сек
Программа кодирования : VirtualDubMod 1.5.10.3 | www.virtualdub-fr.org || (build 2550/release)
Библиотека кодирования : VirtualDubMod build 2550/release
Видео
Идентификатор : 0
Формат : MPEG-4 Visual
Профиль формата : Advanced [email protected]
Параметр BVOP формата : 2
Параметр QPel формата : Нет
Параметр GMC формата : Без точки перехода
Параметр матрицы формата : Default (MPEG)
Идентификатор кодека : XVID
Идентификатор кодека/Подсказка : XviD
Продолжительность : 1 ч. 51 м.
Битрейт : 1475 Кбит/сек
Ширина : 720 пикселей
Высота : 384 пикселя
Соотношение сторон : 1,85:1
Частота кадров : 24,000 кадра/сек
Цветовое пространство : YUV
Субдискретизация насыщенности : 4:2:0
Битовая глубина : 8 бит
Тип развёртки : Прогрессивная
Метод сжатия : С потерями
Бит/(Пиксели*Кадры) : 0.222
Размер потока : 1,15 Гбайт (79%)
Библиотека кодирования : XviD 1.2.1 (UTC 2008-12-04)
Аудио
Идентификатор : 1
Формат : AC-3
Формат/Информация : Audio Coding 3
Расширение режима : CM (complete main)
Параметр Endianness формата : Big
Идентификатор кодека : 2000
Продолжительность : 1 ч. 51 м.
Вид битрейта : Постоянный
Битрейт : 384 Кбит/сек
Каналы : 6 каналов
Расположение каналов : Front: L C R, Side: L R, LFE
Частота : 48,0 КГц
Битовая глубина : 16 бит
Метод сжатия : С потерями
Размер потока : 307 Мбайт (21%)
Выравнивание : Разделение по промежуткам
Продолжительность промежутка : 42 мс. (1,00 видеокадр)
Время предзагрузки промежутка : 500 мс.

Скриншоты

Создавать темы 03-Июл-2015 10:15

[Профиль]  [ЛС] 

Азиз87

Стаж: 4 года 11 месяцев

Сообщений: 752

Симпатии: 143

Перевод:Полное дублирование от Reanimedia когда скачал то удивился такому полному дублированию, весь фон и интонация пропала at , одним словом скачал и удалил.
Сам жду закадровую озвучку где сохранились все прелести спецэфектов и голосов сей.
Это лишь мое личное мнение, не соглашаться с ним это тоже ваше право.

Создавать темы 03-Июл-2015 11:08

[Профиль]  [ЛС] 

Mrblack ®

Стаж: 6 лет 5 месяцев

Сообщений: 247

Симпатии: 52

по моему озвучали очень хорош мне нравился

Создавать темы 03-Июл-2015 11:48

[Профиль]  [ЛС] 

Tas-ix.Yahoo

Стаж: 5 лет 1 месяц

Сообщений: 121

Симпатии: 6

НУуу давайте скорось!!!!!!! хоть бы 50 кБит!!! Прошууу!!!!

Создавать темы 14-Июл-2015 21:32

[Профиль]  [ЛС] 
Показать сообщения:    
Ответить на тему

Текущее время: 22-Окт 00:35

Часовой пояс: UTC + 5



Вы не можете начинать темы
Вы не можете отвечать на сообщения
Вы не можете редактировать свои сообщения
Вы не можете удалять свои сообщения
Вы не можете голосовать в опросах
Вы не можете прикреплять файлы к сообщениям
Вы не можете скачивать файлы