Шиноби: сердце под лезвием / Синоби / Shinobi: Heart Under Blade (Тэн Симояма / Ten Shimoyama) [2005, Япония, Фэнтези, боевик, драма, мелодрама, HDRip] (Dub) (Sub Rus)

Ответить на тему
 

Mrblack ®

Стаж: 6 лет 3 месяца

Сообщений: 247

Симпатии: 52

--Шиноби: сердце под лезвием / Синоби / Shinobi: Heart Under Blade-- Страна: Япония
Жанр: Фэнтези, боевик, драма, мелодрама
Год выпуска: 2005
Продолжительность: 1:42:00
Перевод#1: Профессиональный (многоголосый, закадровый) R5
Перевод#2 Любительский (двухголосый, закадровый)
♫ Оригинальная звуковая дорожка [Japanese]

Cубтитры:eсть √ (три варианта) | *srt |
Режиссер: Тэн Симояма / Ten Shimoyama
Сценарий: Кеня Хирата / Kenya Hirata, Futaro Yamada
Продюсер: Нозому Еноки / Nozomu Enoki
Оператор: Masasai Chikamori
Композитор: Таро Иваширо / Taro Iwashiro--В ролях: Юкиэ Накама (Oboro, (Iga)), Дзё Одагири (Kouga Gennosuke), Томока Куротани (Kagerou, (Kouga)), Ерика Саваджири (Hotarubi, (Iga)), Киппэй Сиина (Yakushiji Tenzen, (Iga)), Такеши Масу (Muroga Hyouma, (Kouga)), Мицуки Кога (Chikuma Koshirou, (Kouga)), Так Сакагучи (Yashamaru, (Iga)), Хоука Киносита (Kisaragi Saemon, (Kouga)), Шун Ито (Mino Nenki, (Iga)), Лили (Ogen, (Head of Iga-clan)), Минору (Kouga Danjou, (Head of Kouga-clan))--Описание: 1614 год. Япония, наконец, объединилась под властью первого сёгуна Токугава. Генноске из клана Кога и Оборо из клана Ига остаются последней надеждой двух деревень, разрываемых трагедией беспрерывной мести. Их благословенная любовь должна принести мир страдающим ниндзя, населяющим деревни.
Однако заговор Токугавы снова сеет вражду между ними. Генноске выступает в защиту мира, а Оборо выбирает сражение как средство разрешения конфликтов. И теперь, когда им предстоит встретиться как врагам, смогут ли они сохранить свою божественную любовь?
--Качество: BDRip
Формат: AVI ///СОВМЕСТИМО С БЫТОВЫМИ ПЛЕЕРАМИ/// Размер : ½ DVDR
Видео: 720x304 (2.37:1), 23.976 fps, XviD build 65 ~2037 kbps avg, 0.39 bit/pixel →//SAMPLE//
Аудио#1: 48 kHz, AC3 Dolby Digital, 3/2 (L,C,R,l,r) + LFE ch, ~448.00 kbps avg - RUS [MVO - R5]
Аудио#2: 48 kHz, AC3 Dolby Digital, 2/0 (L,R) ch, ~192.00 kbps avg - RUS [DVO]
Аудио#3: 48 kHz, AC3 Dolby Digital, 3/2 (L,C,R,l,r) + LFE ch, ~384.00 kbps avg - Jap-- --

MediaInfo

D:\Zona Downloads\Shinobi.2005.XviD.BDRip\Shinobi.2005.XviD.BDRip.avi
General
Complete name : D:\Zona Downloads\Shinobi.2005.XviD.BDRip\Shinobi.2005.XviD.BDRip.avi
Format : AVI
Format/Info : Audio Video Interleave
Format profile : OpenDML
File size : 2.19 GiB
Duration : 1h 42mn
Overall bit rate : 3 069 Kbps
Movie name : Øèíîáè / Shinobi [2005]
Director : Þpèñò
Writing application : VirtualDubMod 1.5.10.2 (build 2540/release)
Writing library : VirtualDubMod build 2540/release
Copyright : RG "All films"
Video #0
ID : 0
Format : MPEG-4 Visual
Format profile : Advanced Simple@L5
Format settings, BVOP : Yes
Format settings, QPel : No
Format settings, GMC : No warppoints
Format settings, Matrix : Custom
Codec ID : XVID
Codec ID/Hint : XviD
Duration : 1h 42mn
Bit rate : 2 021 Kbps
Width : 720 pixels
Height : 304 pixels
Display aspect ratio : 2.35:1
Frame rate : 23.976 fps
Color space : YUV
Chroma subsampling : 4:2:0
Bit depth : 8 bits
Scan type : Progressive
Bits/(Pixel*Frame) : 0.385
Stream size : 1.44 GiB (66%)
Writing library : XviD 65
Audio #1
ID : 1
Format : AC-3
Format/Info : Audio Coding 3
Mode extension : CM (complete main)
Codec ID : 2000
Duration : 1h 42mn
Bit rate mode : Constant
Bit rate : 448 Kbps
Channel(s) : 6 channels
Channel positions : Front: L C R, Side: L R, LFE
Sampling rate : 48.0 KHz
Bit depth : 16 bits
Stream size : 327 MiB (15%)
Alignment : Split accross interleaves
Interleave, duration : 42 ms (1.00 video frame)
Interleave, preload duration : 500 ms
Title : RUS [MVO - R5]
Audio #2
ID : 2
Format : AC-3
Format/Info : Audio Coding 3
Mode extension : CM (complete main)
Codec ID : 2000
Duration : 1h 42mn
Bit rate mode : Constant
Bit rate : 192 Kbps
Channel(s) : 2 channels
Channel positions : Front: L R
Sampling rate : 48.0 KHz
Bit depth : 16 bits
Stream size : 140 MiB (6%)
Alignment : Split accross interleaves
Interleave, duration : 42 ms (1.00 video frame)
Interleave, preload duration : 500 ms
Title : RUS [DVO]
Audio #3
ID : 3
Format : AC-3
Format/Info : Audio Coding 3
Mode extension : CM (complete main)
Codec ID : 2000
Duration : 1h 42mn
Bit rate mode : Constant
Bit rate : 384 Kbps
Channel(s) : 6 channels
Channel positions : Front: L C R, Side: L R, LFE
Sampling rate : 48.0 KHz
Bit depth : 16 bits
Stream size : 280 MiB (13%)
Alignment : Split accross interleaves
Interleave, duration : 42 ms (1.00 video frame)
Interleave, preload duration : 500 ms
Title : Japanese

Скриншоты

Создавать темы 03-Июл-2015 12:29

[Профиль]  [ЛС] 

FoxSage

Стаж: 4 года 1 месяц

Сообщений: 197

Симпатии: 19

Спасибо,

Создавать темы 04-Июл-2015 17:56

[Профиль]  [ЛС] 

sehrzod

Стаж: 6 лет 11 месяцев

Сообщений: 10

Симпатии: 1

Mrblack, раздавайте до конца, тут у всех 80,7%, польного источника нету :(

Создавать темы 06-Июл-2015 13:53

[Профиль]  [ЛС] 
Показать сообщения:    
Ответить на тему

Текущее время: 22-Авг 19:48

Часовой пояс: UTC + 5



Вы не можете начинать темы
Вы не можете отвечать на сообщения
Вы не можете редактировать свои сообщения
Вы не можете удалять свои сообщения
Вы не можете голосовать в опросах
Вы не можете прикреплять файлы к сообщениям
Вы не можете скачивать файлы