Человек эпохи Возрождения / Renaissance Man (Пенни Маршалл) [1994, США, Драма, комедия, DVDRip] (MVO)

Ответить на тему
 

Decadence ®

Стаж: 5 лет 2 месяца

Сообщений: 65

Симпатии: 32

Человек эпохи Возрождения / Renaissance Man
Страна: США
Жанр: Драма, комедия
Год выпуска: 1994
Продолжительность: 02:08:21
Перевод: Профессиональный (многоголосый закадровый)
Cубтитры: нет
Режиссер: Пенни Маршалл
В ролях: Дэнни ДеВито, Грегори Хайнс, Джеймс Римар, Эд Бегли мл., Лилло Бранкато, Стейси Дэш, Кадим Хардисон, Ричард Т. Джонс, Халил Кейн, Питер Симмонс
Описание: Когда Билла уволили из рекламного агентства, он с огорчением обнаружил, что ни к какой другой работе не пригоден. В бюро по трудоустройству над ним так долго измывались, что Билл уже готов был принять любое предложение и отправиться хоть к черту на рога.
И такое предложение поступило — в расположенный неподалеку от города тренировочный армейский лагерь требовался преподаватель, который должен пытаться втиснуть в мозги новобранцев хоть каплю «образования», чтобы они могли покинуть это учебное заведение членами армии США. В отчаянном положении необходимо делать отчаянные шаги, и Биллу оставалось лишь согласиться…
 
Качество видео: DVDRip
Формат видео: AVI
Видео: XviD, 640x352, 23.976 fps, 717 kbps
Аудио: MP3, 44.1 KHz, 2 channels, 112 kbps

MediaInfo

General
Complete name : Renaissance Man.avi
Format : AVI
Format/Info : Audio Video Interleave
File size : 770 MiB
Duration : 2h 8mn
Overall bit rate : 838 Kbps
Writing application : VirtualDubMod 1.5.10.2 (build 2540/release)
Writing library : VirtualDubMod build 2540/release
Video #0
ID : 0
Format : MPEG-4 Visual
Format profile : Advanced [email protected]
Format settings, BVOP : 1
Format settings, QPel : No
Format settings, GMC : No warppoints
Format settings, Matrix : Custom
Codec ID : XVID
Codec ID/Hint : XviD
Duration : 2h 8mn
Bit rate : 717 Kbps
Width : 640 pixels
Height : 352 pixels
Display aspect ratio : 16:9
Frame rate : 23.976 fps
Color space : YUV
Chroma subsampling : 4:2:0
Bit depth : 8 bits
Scan type : Progressive
Compression mode : Lossy
Bits/(Pixel*Frame) : 0.133
Stream size : 658 MiB (86%)
Writing library : XviD 1.2.1 (UTC 2008-12-04)
Audio #1
ID : 1
Format : MPEG Audio
Format version : Version 1
Format profile : Layer 3
Codec ID : 55
Codec ID/Hint : MP3
Duration : 2h 8mn
Bit rate mode : Constant
Bit rate : 112 Kbps
Channel(s) : 2 channels
Sampling rate : 44.1 KHz
Compression mode : Lossy
Stream size : 103 MiB (13%)
Alignment : Split accross interleaves
Interleave, duration : 42 ms (1.00 video frame)
Interleave, preload duration : 500 ms
Writing library : LAME3.98r
Encoding settings : -m s -V 4 -q 2 -lowpass 15.6 -b 112

Скриншот c названием фильма

Скриншоты



Создавать темы 03-Июл-2015 19:28

[Профиль]  [ЛС] 
Показать сообщения:    
Ответить на тему

Текущее время: 21-Ноя 19:02

Часовой пояс: UTC + 5



Вы не можете начинать темы
Вы не можете отвечать на сообщения
Вы не можете редактировать свои сообщения
Вы не можете удалять свои сообщения
Вы не можете голосовать в опросах
Вы не можете прикреплять файлы к сообщениям
Вы не можете скачивать файлы