Страх / Fear (Джеймс Фоули) [1996, США, Триллер, драма, BDRip] (Dub)

Ответить на тему
 

Decadence ®

Стаж: 5 лет

Сообщений: 65

Симпатии: 32

Страх / Fear
Страна: США
Жанр: Триллер, драма
Год выпуска: 1996
Продолжительность: 01:36:50
Перевод: Профессиональный (дублированный)
Cубтитры: нет
Режиссер: Джеймс Фоули
В ролях: Марк Уолберг, Риз Уизерспун, Уильям Питерсен, Эми Бреннеман, Алисса Милано, Кристофер Грэй, Трэйси Фрэйм, Гари Райли, Джейсон Кристофер, Джед Риис
Описание: Шестнадцатилетняя белокурая красавица Николь идет с подругой в ночной клуб и знакомится там с обаятельным и сексуальным парнем по имени Дэвид. Вскоре невинная первая любовь превращается в одержимость, а Николь становится заложницей агрессивной страсти Дэвида, склонного к припадкам беспричинной ревности.
Дэвид избивает друга только за то, что он прошелся с Николь по улице; а когда Николь пытается разорвать отношения с юным тираном, он полностью теряет контроль над своими действиями…
 
Качество видео: BDRip
Формат видео: AVI
Видео: XviD, 720x304, 23.976 fps, 937 kbps
Аудио: MP3, 48.0 KHz, 2 channels, 128 kbps

MediaInfo

General
Complete name : Fear.avi
Format : AVI
Format/Info : Audio Video Interleave
File size : 744 MiB
Duration : 1h 36mn
Overall bit rate : 1 075 Kbps
Writing application : VirtualDubMod 1.5.10.3 | www.virtualdub-fr.org || (build 2550/release)
Writing library : VirtualDubMod build 2550/release
Video #0
ID : 0
Format : MPEG-4 Visual
Format profile : Advanced [email protected]
Format settings, BVOP : 1
Format settings, QPel : No
Format settings, GMC : No warppoints
Format settings, Matrix : Custom
Codec ID : XVID
Codec ID/Hint : XviD
Duration : 1h 36mn
Bit rate : 937 Kbps
Width : 720 pixels
Height : 304 pixels
Display aspect ratio : 2.35:1
Frame rate : 23.976 fps
Color space : YUV
Chroma subsampling : 4:2:0
Bit depth : 8 bits
Scan type : Progressive
Compression mode : Lossy
Bits/(Pixel*Frame) : 0.179
Stream size : 649 MiB (87%)
Writing library : XviD 65
Audio #1
ID : 1
Format : MPEG Audio
Format version : Version 1
Format profile : Layer 3
Codec ID : 55
Codec ID/Hint : MP3
Duration : 1h 36mn
Bit rate mode : Constant
Bit rate : 128 Kbps
Channel(s) : 2 channels
Sampling rate : 48.0 KHz
Compression mode : Lossy
Stream size : 88.7 MiB (12%)
Alignment : Aligned on interleaves
Interleave, duration : 42 ms (1.00 video frame)
Interleave, preload duration : 504 ms
Writing library : LAME3.98r
Encoding settings : -m s -V 4 -q 0 -lowpass 17 -b 128

Скриншот c названием фильма

Скриншоты



Создавать темы 03-Июл-2015 19:39

[Профиль]  [ЛС] 
Показать сообщения:    
Ответить на тему

Текущее время: 21-Окт 00:44

Часовой пояс: UTC + 5



Вы не можете начинать темы
Вы не можете отвечать на сообщения
Вы не можете редактировать свои сообщения
Вы не можете удалять свои сообщения
Вы не можете голосовать в опросах
Вы не можете прикреплять файлы к сообщениям
Вы не можете скачивать файлы