13 разговоров об одном / Thirteen Conversations About One Thing (Джилл Шпрехер) [2001, США, Драма, DVDRip] (MVO)

Ответить на тему
 

Decadence ®

Стаж: 5 лет

Сообщений: 65

Симпатии: 32

13 разговоров об одном / Thirteen Conversations About One Thing
Страна: США
Жанр: Драма
Год выпуска: 2001
Продолжительность: 01:39:28
Перевод: Профессиональный (многоголосый закадровый)
Cубтитры: нет
Режиссер: Джилл Шпрехер
В ролях: Мэттью МакКонахи, Джон Туртурро, Клеа ДюВалл, Эми Ирвинг, Алан Аркин, Дэвид Коннелли, Джозеф Сираво, А.Д. Майлз, Сиг Либовиц, Джеймс Яегаши
Описание: Молодой, преуспевающий юрист сбивает девушку и в панике скрывается с места происшествия, но совесть и невыносимое чувство вины превращают его жизнь в ад; профессор физики изменяет своей жене с коллегой по работе, под прессингом обстоятельств он отказывается поставить высший балл своему студенту и тот кончает с собой; циничный и желчный бизнесмен увольняет своего подчиненного только за то, что тот — неисправимый. оптимист… Но цепочка страшных совпадений даются людям неслучайно: они должны вырваться из жестокой хватки тисков неумолимой судьбы с очистившимися душами, чтобы заново найти утраченное счастье…
 
Качество видео: DVDRip
Формат видео: AVI
Видео: XviD, 624x336, 25.000 fps, 846 kbps
Аудио: MP3, 48.0 KHz, 2 channels, 128 kbps

MediaInfo

General
Complete name : Thirteen Conversations About One Thing.avi
Format : AVI
Format/Info : Audio Video Interleave
File size : 700 MiB
Duration : 1h 39mn
Overall bit rate : 983 Kbps
Writing application : FairUse Wizard - http://fairusewizard.com
Writing library : The best and REALLY easy backup tool
Video #0
ID : 0
Format : MPEG-4 Visual
Format profile : Advanced [email protected]
Format settings, BVOP : 1
Format settings, QPel : No
Format settings, GMC : No warppoints
Format settings, Matrix : Default (MPEG)
Muxing mode : Packed bitstream
Codec ID : XVID
Codec ID/Hint : XviD
Duration : 1h 39mn
Bit rate : 846 Kbps
Width : 624 pixels
Height : 336 pixels
Display aspect ratio : 1.85:1
Frame rate : 25.000 fps
Color space : YUV
Chroma subsampling : 4:2:0
Bit depth : 8 bits
Scan type : Progressive
Compression mode : Lossy
Bits/(Pixel*Frame) : 0.161
Stream size : 602 MiB (86%)
Writing library : XviD 1.2.0.dev47 (UTC 2006-11-01)
Audio #1
ID : 1
Format : MPEG Audio
Format version : Version 1
Format profile : Layer 3
Mode : Joint stereo
Codec ID : 55
Codec ID/Hint : MP3
Duration : 1h 39mn
Bit rate mode : Constant
Bit rate : 128 Kbps
Channel(s) : 2 channels
Sampling rate : 48.0 KHz
Compression mode : Lossy
Stream size : 91.1 MiB (13%)
Alignment : Aligned on interleaves
Interleave, duration : 40 ms (1.00 video frame)
Interleave, preload duration : 504 ms
Writing library : LAME3.97
Encoding settings : -m j -V 4 -q 2 -lowpass 17 -b 128

Скриншоты



Создавать темы 03-Июл-2015 21:03

[Профиль]  [ЛС] 
Показать сообщения:    
Ответить на тему

Текущее время: 24-Сен 19:09

Часовой пояс: UTC + 5



Вы не можете начинать темы
Вы не можете отвечать на сообщения
Вы не можете редактировать свои сообщения
Вы не можете удалять свои сообщения
Вы не можете голосовать в опросах
Вы не можете прикреплять файлы к сообщениям
Вы не можете скачивать файлы