Маленькие пальчики / Tiptoes (Мэттью Брайт) [2003, США, Франция, Драма, мелодрама, комедия, DVDRip] (DVO)

Ответить на тему
 

Decadence ®

Стаж: 5 лет 1 месяц

Сообщений: 65

Симпатии: 32

Маленькие пальчики / Tiptoes
Страна: США, Франция
Жанр: Драма, мелодрама, комедия
Год выпуска: 2003
Продолжительность: 01:26:25
Перевод: Профессиональный (двухголосый закадровый)
Cубтитры: нет
Режиссер: Мэттью Брайт
В ролях: Гари Олдман, Мэттью МакКонахи, Кейт Бекинсейл, Патриция Аркетт, Питер Динклэйдж, Дебби Ли Кэррингтон, Эд Гэйл, Дэвид Алан Грир, Марсия Де Русс, Кейси Борроумэн
Описание: Кэрол узнаёт, что она беременна, но её парень не хочет ребёнка. Девушка настаивает, и ей приходится открыть семейную тайну: на протяжении нескольких столетий все предки её парня были карликами. Его брат Рольф — тоже очень маленького роста. Это значит, что и ребёнок Кэрол может унаследовать эти черты. Что же делать?
Конечно, не каждый бы решился сохранить ребёнка, но Келли готова на всё ради своего малыша. Она знакомится с семьёй Рольфа и его низкорослыми друзьями — циничным грубияном-марксистом Морисом и его подружкой Люси.
Перед Кэрол открывается новый, неизвестный мир. И самое главное, теперь она испытывает к Рольфу больше, чем просто симпатию…
 
Качество видео: DVDRip
Формат видео: AVI
Видео: XviD, 576x320, 25.000 fps, 987 kbps
Аудио: MP3, 48.0 KHz, 2 channels, 192 kbps

MediaInfo

General
Complete name : Tiptoes.avi
Format : AVI
Format/Info : Audio Video Interleave
File size : 735 MiB
Duration : 1h 26mn
Overall bit rate : 1 189 Kbps
Writing application : VirtualDubMod 1.5.10.2 (build 2540/release)
Writing library : VirtualDubMod build 2540/release
Video #0
ID : 0
Format : MPEG-4 Visual
Format profile : Advanced [email protected]
Format settings, BVOP : 1
Format settings, QPel : No
Format settings, GMC : No warppoints
Format settings, Matrix : Default (MPEG)
Codec ID : XVID
Codec ID/Hint : XviD
Duration : 1h 26mn
Bit rate : 987 Kbps
Width : 576 pixels
Height : 320 pixels
Display aspect ratio : 16:9
Frame rate : 25.000 fps
Color space : YUV
Chroma subsampling : 4:2:0
Bit depth : 8 bits
Scan type : Progressive
Compression mode : Lossy
Bits/(Pixel*Frame) : 0.214
Stream size : 610 MiB (83%)
Writing library : XviD 65
Audio #1
ID : 1
Format : MPEG Audio
Format version : Version 1
Format profile : Layer 3
Codec ID : 55
Codec ID/Hint : MP3
Duration : 1h 26mn
Bit rate mode : Constant
Bit rate : 192 Kbps
Channel(s) : 2 channels
Sampling rate : 48.0 KHz
Compression mode : Lossy
Stream size : 119 MiB (16%)
Alignment : Aligned on interleaves
Interleave, duration : 40 ms (1.00 video frame)
Interleave, preload duration : 504 ms

Скриншот c названием фильма

Скриншоты



Создавать темы 03-Июл-2015 21:24

[Профиль]  [ЛС] 
Показать сообщения:    
Ответить на тему

Текущее время: 18-Ноя 08:01

Часовой пояс: UTC + 5



Вы не можете начинать темы
Вы не можете отвечать на сообщения
Вы не можете редактировать свои сообщения
Вы не можете удалять свои сообщения
Вы не можете голосовать в опросах
Вы не можете прикреплять файлы к сообщениям
Вы не можете скачивать файлы