Сумерки / Twilight (Роберт Бентон) [1998, США, Триллер, драма, криминал, детектив, DVDRip] (MVO)

Ответить на тему
 

Decadence ®

Стаж: 5 лет

Сообщений: 65

Симпатии: 32

Сумерки / Twilight
Страна: США
Жанр: Триллер, драма, криминал, детектив
Год выпуска: 1998
Продолжительность: 01:28:13
Перевод: Профессиональный (многоголосый закадровый)
Cубтитры: нет
Режиссер: Роберт Бентон
В ролях: Пол Ньюман, Сьюзен Сарандон, Джин Хэкмен, Риз Уизерспун, Стокард Ченнинг, Джеймс Гарнер, Джанкарло Эспозито, Лив Шрайбер, Марго Мартиндейл, Джон Спенсер
Описание: Пол Ньюмен в роли Гарри Росса, уставшего от жизни частного сыщика, который расследует таинственное убийство, связанное с давнишним нераскрытым делом, в котором смешались голливудские мечты, интриги и махинации.
 
Качество видео: DVDRip
Формат видео: AVI
Видео: XviD, 624x352, 25.000 fps, 1045 kbps
Аудио: MP3, 48.0 KHz, 2 channels, 128 kbps

MediaInfo

General
Complete name : Twilight.avi
Format : AVI
Format/Info : Audio Video Interleave
File size : 746 MiB
Duration : 1h 28mn
Overall bit rate : 1 183 Kbps
Writing application : VirtualDubMod 1.5.10.2 (build 2540/release)
Writing library : VirtualDubMod build 2540/release
Video #0
ID : 0
Format : MPEG-4 Visual
Format profile : Advanced [email protected]
Format settings, BVOP : 1
Format settings, QPel : No
Format settings, GMC : No warppoints
Format settings, Matrix : Default (MPEG)
Codec ID : XVID
Codec ID/Hint : XviD
Duration : 1h 28mn
Bit rate : 1 045 Kbps
Width : 624 pixels
Height : 352 pixels
Display aspect ratio : 16:9
Frame rate : 25.000 fps
Color space : YUV
Chroma subsampling : 4:2:0
Bit depth : 8 bits
Scan type : Progressive
Compression mode : Lossy
Bits/(Pixel*Frame) : 0.190
Stream size : 659 MiB (88%)
Writing library : XviD 1.2.0.dev47 (UTC 2006-11-01)
Audio #1
ID : 1
Format : MPEG Audio
Format version : Version 1
Format profile : Layer 3
Mode : Joint stereo
Mode extension : MS Stereo
Codec ID : 55
Codec ID/Hint : MP3
Duration : 1h 28mn
Bit rate mode : Constant
Bit rate : 128 Kbps
Channel(s) : 2 channels
Sampling rate : 48.0 KHz
Compression mode : Lossy
Stream size : 80.8 MiB (11%)
Alignment : Aligned on interleaves
Interleave, duration : 40 ms (1.00 video frame)
Interleave, preload duration : 504 ms

Скриншот c названием фильма

Скриншоты



Создавать темы 03-Июл-2015 21:34

[Профиль]  [ЛС] 

фазилов

Стаж: 3 года 8 месяцев

Сообщений: 310

Симпатии: 344

Встаньте на раздачу, плиз aa

Создавать темы 13-Июл-2015 22:04

[Профиль]  [ЛС] 
Показать сообщения:    
Ответить на тему

Текущее время: 27-Сен 03:44

Часовой пояс: UTC + 5



Вы не можете начинать темы
Вы не можете отвечать на сообщения
Вы не можете редактировать свои сообщения
Вы не можете удалять свои сообщения
Вы не можете голосовать в опросах
Вы не можете прикреплять файлы к сообщениям
Вы не можете скачивать файлы