Грабеж / Heist (Дэвид Мэмет) [2001, Канада, США, Боевик, триллер, драма, криминал, HDTVRip] (MVO)

Ответить на тему
 

Decadence ®

Стаж: 5 лет

Сообщений: 65

Симпатии: 32

Грабеж / Heist
Страна: Канада, США
Жанр: Боевик, триллер, драма, криминал
Год выпуска: 2001
Продолжительность: 01:49:09
Перевод: Профессиональный (многоголосый закадровый)
Cубтитры: нет
Режиссер: Дэвид Мэмет
В ролях: Джин Хэкмен, Дэнни ДеВито, Делрой Линдо, Сэм Рокуэлл, Ребекка Пиджон, Рикки Джей, Пэтти ЛюПон, Алан Билзериан, Ричард Л. Фридман, Роберт Люббьер
Описание: У Джо Мура есть все — красивая молодая жена, деньги, которые ему должны, и работа, которую он любит. Он — вор. Его работа накрывается медным тазом тогда, когда его застукивают при помощи охранной камеры. Его соперник, Бергман шантажирует его, требуя простить долг, а его жена уходит к новичку — другу Бергмана.
Мур, его партнер, Бобби Блан и их связной Пинки Пинкус вынуждены собрать команду, которая сделает ограбление по заказу Бергмана, и которое станет последним в карьере Мура.
Сдаст ли Бергман Мура полиции? Вернется ли к Муру жена? Выйдут ли сухими из воды Блан и Пинкус? Кому можно верить, а кто предаст? Не будет ли кто-нибудь солгав однажды, лгать в очередной раз? И наконец, кто будет смеяться последним?
 
Качество видео: HDTVRip
Формат видео: AVI
Видео: XviD, 672x384, 23.976 fps, 814 kbps
Аудио: MP3, 48.0 KHz, 2 channels, 128 kbps

MediaInfo

General
Complete name : Heist.avi
Format : AVI
Format/Info : Audio Video Interleave
File size : 743 MiB
Duration : 1h 49mn
Overall bit rate : 952 Kbps
Writing application : VirtualDubMod 1.5.10.2 (build 2540/release)
Writing library : VirtualDubMod build 2540/release
Video #0
ID : 0
Format : MPEG-4 Visual
Format profile : Advanced [email protected]
Format settings, BVOP : 1
Format settings, QPel : No
Format settings, GMC : No warppoints
Format settings, Matrix : Custom
Codec ID : XVID
Codec ID/Hint : XviD
Duration : 1h 49mn
Bit rate : 814 Kbps
Width : 672 pixels
Height : 384 pixels
Display aspect ratio : 16:9
Frame rate : 23.976 fps
Color space : YUV
Chroma subsampling : 4:2:0
Bit depth : 8 bits
Scan type : Progressive
Compression mode : Lossy
Bits/(Pixel*Frame) : 0.132
Stream size : 636 MiB (86%)
Writing library : XviD 1.2.1 (UTC 2008-12-04)
Audio #1
ID : 1
Format : MPEG Audio
Format version : Version 1
Format profile : Layer 3
Mode : Joint stereo
Mode extension : MS Stereo
Codec ID : 55
Codec ID/Hint : MP3
Duration : 1h 49mn
Bit rate mode : Constant
Bit rate : 128 Kbps
Channel(s) : 2 channels
Sampling rate : 48.0 KHz
Compression mode : Lossy
Stream size : 99.9 MiB (13%)
Alignment : Aligned on interleaves
Interleave, duration : 42 ms (1.00 video frame)
Interleave, preload duration : 504 ms
Writing library : LAME3.98r
Encoding settings : -m j -V 4 -q 2 -lowpass 17 -b 128

Скриншот c названием фильма

Скриншоты



Создавать темы 03-Июл-2015 21:45

[Профиль]  [ЛС] 
Показать сообщения:    
Ответить на тему

Текущее время: 19-Окт 19:38

Часовой пояс: UTC + 5



Вы не можете начинать темы
Вы не можете отвечать на сообщения
Вы не можете редактировать свои сообщения
Вы не можете удалять свои сообщения
Вы не можете голосовать в опросах
Вы не можете прикреплять файлы к сообщениям
Вы не можете скачивать файлы