Тату / Татау / Сезон: 1 / Серии: 1-8 из 8 (Уэйн Йип, Майкл Херст) [2015, Драма, WEB-DLRip] (MVO : NikiStudio) (Original)

Ответить на тему
 

lector_87 ®

Стаж: 3 года 10 месяцев

Сообщений: 391

Симпатии: 348

Тату / Татау-
Год выпуска: 2015
Страна: Великобритания
Жанр: Драма
Продолжительность: 00:43:00-
Перевод: Любительский многоголосый закадровый NikiStudio
Режиссёр: Уэйн Йип, Майкл Херст-
В ролях: Джо Лэйтон, Тео Барклем-Биггз, Циан Элиз Уайт, Шушила Такао, Алекс Таррант, Темуэра Моррисон, Кирк Торранс, Андре Кинг и др.-Описание: Кайл и Бадж — двое 20-летних друзей из Лондона, которые отправились путешествовать по миру. Перед поездкой Кайл набивает татуировку в стиле маори, узор которой вертелся у него в голове несколько лет. На завершающем этапе путешествия — острове Кука — они думают, что попали в Рай на Земле. Но не всё являет тем, чем кажется. Парни пробуют священный напиток Аватави, и Кайлу начинает видеться местная девушка, которая просит спасти её. В попытках разобраться, что к чему, Кайл и Бадж всё глубже погружаются в мир маори, реальный и воображаемый…-
Доп. информация: Релиз от NikiStudio
Перевод: Дарья Жмура, Дарья Толчевская, Никита Коваль
Роли озвучивали: Глеб Петров, Никита Коваль, Адам Шухарт, Мария Артемова, Анна Мачугина
Звукорежиссер: Мария (Ascolta) Артемова-
Качество: WEB-DLRip
Формат: AVI
Видео кодек: XviD
Аудио кодек: AC3
Видео: XVID, 720x400 (16:9), 25.000 fps, ~1500 kbps avg, 0.208 bit/pixel
Аудио Rus: AC3, 48.0 KHz, 2 channels, ~192 kbps avg
Аудио Eng: AC3, 48.0 KHz, 2 channels, ~192 kbps avg-

MediaInfo

General
Complete name : E:\Тату (Сезон 1) NikiStudio\Tatu.s01e01.NikiStudio.WEB-DLRip.avi
Format : AVI
Format/Info : Audio Video Interleave
File size : 586 MiB
Duration : 43mn 11s
Overall bit rate : 1 898 Kbps
Writing application : VirtualDubMod 1.5.10.2 (build 2540/release)
Writing library : VirtualDubMod build 2540/release
Video
ID : 0
Format : MPEG-4 Visual
Format profile : Advanced [email protected]
Format settings, BVOP : 2
Format settings, QPel : No
Format settings, GMC : No warppoints
Format settings, Matrix : Custom
Codec ID : XVID
Codec ID/Hint : XviD
Duration : 43mn 11s
Bit rate : 1 500 Kbps
Width : 720 pixels
Height : 400 pixels
Display aspect ratio : 16:9
Frame rate : 25.000 fps
Color space : YUV
Chroma subsampling : 4:2:0
Bit depth : 8 bits
Scan type : Progressive
Compression mode : Lossy
Bits/(Pixel*Frame) : 0.208
Stream size : 463 MiB (79%)
Writing library : XviD 1.2.1 (UTC 2008-12-04)
Audio #1
ID : 1
Format : AC-3
Format/Info : Audio Coding 3
Mode extension : CM (complete main)
Format settings, Endianness : Big
Codec ID : 2000
Duration : 43mn 11s
Bit rate mode : Constant
Bit rate : 192 Kbps
Channel count : 2 channels
Channel positions : Front: L R
Sampling rate : 48.0 KHz
Bit depth : 16 bits
Compression mode : Lossy
Stream size : 59.3 MiB (10%)
Alignment : Split accross interleaves
Interleave, duration : 40 ms (1.00 video frame)
Interleave, preload duration : 500 ms
Audio #2
ID : 2
Format : AC-3
Format/Info : Audio Coding 3
Mode extension : CM (complete main)
Format settings, Endianness : Big
Codec ID : 2000
Duration : 43mn 11s
Bit rate mode : Constant
Bit rate : 192 Kbps
Channel count : 2 channels
Channel positions : Front: L R
Sampling rate : 48.0 KHz
Bit depth : 16 bits
Compression mode : Lossy
Stream size : 59.3 MiB (10%)
Alignment : Split accross interleaves
Interleave, duration : 40 ms (1.00 video frame)
Interleave, preload duration : 500 ms

Скриншоты





Последний раз редактировалось: lector_87 (2015-10-20 21:23), всего редактировалось 7 раз(а)

Создавать темы 03-Июл-2015 22:02

[Профиль]  [ЛС] 

lector_87 ®

Стаж: 3 года 10 месяцев

Сообщений: 391

Симпатии: 348

2 серия добавлена

Создавать темы 14-Июл-2015 06:23

[Профиль]  [ЛС] 

lector_87 ®

Стаж: 3 года 10 месяцев

Сообщений: 391

Симпатии: 348

3 серия добавлена

Создавать темы 26-Июл-2015 03:35

[Профиль]  [ЛС] 
Показать сообщения:    
Ответить на тему

Текущее время: 18-Дек 19:54

Часовой пояс: UTC + 5



Вы не можете начинать темы
Вы не можете отвечать на сообщения
Вы не можете редактировать свои сообщения
Вы не можете удалять свои сообщения
Вы не можете голосовать в опросах
Вы не можете прикреплять файлы к сообщениям
Вы не можете скачивать файлы