Голубой гром / Blue Thunder (Джон Бэдэм) [1982, США, Фантастика, боевик, триллер, драма, криминал, HDRip] (MVO)

Ответить на тему
 

Decadence ®

Стаж: 5 лет

Сообщений: 65

Симпатии: 32

Голубой гром / Blue Thunder
Страна: США
Жанр: Фантастика, боевик, триллер, драма, криминал
Год выпуска: 1982
Продолжительность: 01:49:14
Перевод: Профессиональный (многоголосый закадровый)
Cубтитры: нет
Режиссер: Джон Бэдэм
В ролях: Рой Шайдер, Уоррен Оутс, Кэнди Кларк, Дэниел Стерн, Пол Роублинг, Дэвид Шайнер, Джо Сантос, Малкольм МакДауэлл, Эд Бернард, Джейсон Бернард
Описание: «Голубой гром» — это чудо-вертолет, оснащенный супертехникой. Он разработан для того, чтобы надежно оградить Лос-Анджелес от террористов. Но пилот Мёрфи узнает нечто такое, что ему знать вовсе не следовало.
И вот уже вертолётчику самому приходится защищаться, и единственный путь к спасению — разоблачить высокопоставленных заговорщиков и их наймитов.
 
Качество видео: HDRip
Формат видео: AVI
Видео: DivX, 688x288, 23.976 fps, 815 kbps
Аудио: MP3, 48.0 KHz, 2 channels, 128 kbps

MediaInfo

General
Complete name : Blue Thunder.avi
Format : AVI
Format/Info : Audio Video Interleave
File size : 744 MiB
Duration : 1h 49mn
Overall bit rate : 953 Kbps
Writing application : VirtualDubMod 1.5.10.2 (build 2540/release)
Writing library : VirtualDubMod build 2540/release
Video #0
ID : 0
Format : MPEG-4 Visual
Format profile : Advanced [email protected]
Format settings, BVOP : 1
Format settings, QPel : No
Format settings, GMC : No warppoints
Format settings, Matrix : Default (MPEG)
Codec ID : DX50
Codec ID/Hint : DivX 5
Duration : 1h 49mn
Bit rate : 815 Kbps
Width : 688 pixels
Height : 288 pixels
Display aspect ratio : 2.40:1
Frame rate : 23.976 fps
Color space : YUV
Chroma subsampling : 4:2:0
Bit depth : 8 bits
Scan type : Progressive
Compression mode : Lossy
Bits/(Pixel*Frame) : 0.172
Stream size : 637 MiB (86%)
Writing library : XviD 1.2.1 (UTC 2008-12-04)
Audio #1
ID : 1
Format : MPEG Audio
Format version : Version 1
Format profile : Layer 3
Mode : Joint stereo
Mode extension : MS Stereo
Codec ID : 55
Codec ID/Hint : MP3
Duration : 1h 49mn
Bit rate mode : Constant
Bit rate : 128 Kbps
Channel(s) : 2 channels
Sampling rate : 48.0 KHz
Compression mode : Lossy
Stream size : 100 MiB (13%)
Alignment : Aligned on interleaves
Interleave, duration : 42 ms (1.00 video frame)
Interleave, preload duration : 504 ms

Скриншоты



Создавать темы 03-Июл-2015 22:08

[Профиль]  [ЛС] 
Показать сообщения:    
Ответить на тему

Текущее время: 21-Окт 01:00

Часовой пояс: UTC + 5



Вы не можете начинать темы
Вы не можете отвечать на сообщения
Вы не можете редактировать свои сообщения
Вы не можете удалять свои сообщения
Вы не можете голосовать в опросах
Вы не можете прикреплять файлы к сообщениям
Вы не можете скачивать файлы