Нити/Город - герой / Strings (Даниэль Дуран) [2015, Канада, США, драма, музыка, HDRip] (VO) (Sub Rus)

Ответить на тему
 

Davron1402 ®

Стаж: 3 года 10 месяцев

Сообщений: 136

Симпатии: 122

Нити/Город - герой / Strings- Страна: Канада, США
Жанр: драма, музыка
Год выпуска: 2015
Продолжительность: 01:53:46
Перевод: Одноголосый закадровый
Cубтитры: русские
Режиссер: Даниэль Дуран
В ролях: Мария Белло, Джош Дюамель, Лора Дерн, Лукас Тилл, Том Эверетт Скотт, Джей Хед, Катрина Норма, Керингтон Пэйн, Шамир Андерсон, Sharlene Taulé
Описание: Джош живет в Нью-Йорке и больше всего на свете любит музыку. После неприятного инцидента, однако, он вынужден покинуть город и переехать в провинциальный городок. Мало того, что здесь ничего не происходит , так еще скоро выясняется что почти у всех жителей здесь тяжелое прошлое...-Качество видео: HDRip
Формат видео: mp4 (MPEG-4)
Видео: AVC, 720 x 304 (2.35:1), 23.976 fps, 1 821 Kbps
Аудио: AAC, 44.1 KHz, 2 channels, 152 Kbps- 

Бонус Соундтрек

Название: Соундтрек - Mega mix (Даврон mix)
Формат: mp3
Частота дискретизации: 44 KHz
Битрейт: 320 Kbps, Stereo

MediaInfo

Имя файла: Нити Город - герой.mp4
Формат файла: .mp4 (MPEG-4)
Размер файла: 1.57 GB
Длительность: 1h 53mn
Навигация по главам: Нет
Bitrate (все потоки): 1 977 Kbps
Тип битрейта (все потоки): Variable
Название: Нити Город - герой
Тип потока: Видео
Длительность: 01:53:46
Кодек: AVC
Кодек/Профиль: [email protected]
Кодек/ID: avc1
Кодек/CABAC: No
Кодек/ReFrames: 1 frame
Размеры изображения: 720 x 304 (2.35:1)
Частота кадров: 23.976 fps
Размер потока: 1.45 GiB (92%)
Битрейт: 1 821 Kbps
Цветовое пространство: YUV
Тип развёртки: Progressive
Глубина: 8 bits
Тип потока: Звук #1
Длительность: 01:53:46.667
Кодек: AAC
Кодек/Профиль: LC
Кодек/ID: 40
Частота дискретизации: 44.1 KHz
Каналов: 2 channels
Битрейт: 152 Kbps
Битрейт/тип: Variable
Размер потока: 124 MiB (8%)
Метод сжатия: Lossy

Скриншоты





Создавать темы 03-Июл-2015 22:20

[Профиль]  [ЛС] 

Davron1402 ®

Стаж: 3 года 10 месяцев

Сообщений: 136

Симпатии: 122

У нас опят Fiesta

Создавать темы 03-Июл-2015 22:41

[Профиль]  [ЛС] 
Показать сообщения:    
Ответить на тему

Текущее время: 22-Ноя 15:51

Часовой пояс: UTC + 5



Вы не можете начинать темы
Вы не можете отвечать на сообщения
Вы не можете редактировать свои сообщения
Вы не можете удалять свои сообщения
Вы не можете голосовать в опросах
Вы не можете прикреплять файлы к сообщениям
Вы не можете скачивать файлы