Государственная граница (16 серий) (Борис Степанов, Вячеслав Никифоров, Геннадий Иванов) [1980, киноэпопея, DVDRip]

Ответить на тему
 

фазилов ®

Стаж: 3 года 7 месяцев

Сообщений: 310

Симпатии: 344

ГОСУДАРСТВЕННАЯ ГРАНИЦА (16 серий из 16 )
Жанр: киноэпопея
Год выпуска: 1980-1988
Продолжительность:01:05:30 + 01:05:59 + 01:05:25 + 01:05:52 + 01:14:16 + 01:10:37 + 01:04:54 + 01:15:00 + 01:07:47 + 01:07:47 + 01:07:40 + 01:06:28 + 01:04:40 + 01:03:34 + 01:03:50 + 01:06:33
Режиссёры: Борис Степанов, Вячеслав Никифоров, Геннадий Иванов

В ролях: Вия Артмане, Аристарх Ливанов, Эрнст Романов, Марина Дюжева, Михаил Козаков, Анна Каменкова, Юрий Каюров, Игорь Старыгин, Павел Винник, Улдис Лиелдидж, Людмила Нильская, Эдуард Марцевич, Валентина Титова, Юрий Катин-Ярцев, Талгат Нигматулин, Евгений Герасимов, Паул Буткевич, Олег Ефремов, Гирт Яковлев, Ирина Шевчук, Ростислав Янковский, Юрий Мороз, Валерий Рыбчинский, Арчил Гомиашвили, Евгений Леонов-Гладышев, Семен Морозов, Геннадий Корольков, Андрей Смоляков, Вера Сотникова, Марина Левтова, Алексей Булдаков
Описание: Историко-приключенческий телевизионный сериал, снятый на киностудии «Беларусьфильм» в 1980—1988 годах и рассказывающий о службе советских пограничников. Действие происходит в период с 1917 года по конец 1980 и разворачивается на территории СССР от Дальнего Востока до западных границ.

Доп. информация: Каждый фильм представляет собой законченный сюжет.
Сериал состоит из восьми фильмов (по две серии в каждом).
Фильм 1. "Мы наш, мы новый..." 1980
Фильм 2. "Мирное лето 21-го года". 1980
Фильм 3. "Восточный рубеж". 1981
Фильм 4. "Красный песок". 1984
Фильм 5. "Год сорок первый". 1986
Фильм 6. "За порогом победы". 1987
Фильм 7. "Соленый ветер". 1988
Фильм 8. "На дальнем пограничье". 1988

Качество видео: DVDRip
Формат видео: AVI

Видео: 720x480 (1.50:1), 25 fps, XviD build 50 ~2006 kbps avg, 0.23 bit/pixel
Аудио: 44.100 kHz, MPEG Layer 3, 2 ch, ~248.07 kbps avg

MediaInfo

General
Complete name : E:\Российские сериалы-2\Государственная граница\Государственная граница. Фильм 1. Мы наш,мы новый (1-я серия)_xvid.avi
Format : AVI
Format/Info : Audio Video Interleave
Format profile : OpenDML
File size : 1.03 GiB
Duration : 1h 5mn
Overall bit rate mode : Variable
Overall bit rate : 2 261 Kbps
Writing application : MEncoder Sherpya-SVN-r29355-4.5.0
Writing library : MPlayer
Video
ID : 0
Format : MPEG-4 Visual
Format profile : [email protected]
Format settings, BVOP : No
Format settings, QPel : No
Format settings, GMC : No warppoints
Format settings, Matrix : Default (H.263)
Codec ID : XVID
Codec ID/Hint : XviD
Duration : 1h 5mn
Bit rate : 1 997 Kbps
Width : 720 pixels
Height : 480 pixels
Display aspect ratio : 3:2
Frame rate : 25.000 fps
Standard : NTSC
Color space : YUV
Chroma subsampling : 4:2:0
Bit depth : 8 bits
Scan type : Progressive
Compression mode : Lossy
Bits/(Pixel*Frame) : 0.231
Stream size : 936 MiB (88%)
Writing library : XviD 1.2.1 (UTC 2008-12-04)
Audio
ID : 1
Format : MPEG Audio
Format version : Version 1
Format profile : Layer 3
Mode : Joint stereo
Mode extension : MS Stereo
Codec ID : 55
Codec ID/Hint : MP3
Duration : 1h 5mn
Bit rate mode : Variable
Bit rate : 248 Kbps
Channel(s) : 2 channels
Sampling rate : 44.1 KHz
Compression mode : Lossy
Stream size : 116 MiB (11%)
Alignment : Aligned on interleaves
Interleave, duration : 26 ms (0.65 video frame)
Interleave, preload duration : 565 ms

Скриншот c названием фильма

Скриншоты








Создавать темы 04-Июл-2015 18:07

[Профиль]  [ЛС] 

Sunnat1999

Стаж: 4 года 7 месяцев

Сообщений: 756

Симпатии: 416

Помню смотрел когда-то. Если удастся скачать, посмотрю ещё раз с удовольствием

Создавать темы 04-Июл-2015 19:37

[Профиль]  [ЛС] 

фазилов ®

Стаж: 3 года 7 месяцев

Сообщений: 310

Симпатии: 344

Sunnat1999, Если приконнектишься-отрою весь канал на этот релиз. aa

Создавать темы 04-Июл-2015 19:39

[Профиль]  [ЛС] 

Sunnat1999

Стаж: 4 года 7 месяцев

Сообщений: 756

Симпатии: 416

Я подконнектился как Sunnat1999, если не пойдёт подключусь как atgerkin с другого канала

Создавать темы 04-Июл-2015 19:50

[Профиль]  [ЛС] 

фазилов ®

Стаж: 3 года 7 месяцев

Сообщений: 310

Симпатии: 344

На ночь оставлять раздачу не буду , в связи с частичным выходом трекера из зоны " Tas-ix". Перестрахуюсь-мало ли что,так что извиняйте. До 24.00 aa

Создавать темы 04-Июл-2015 20:35

[Профиль]  [ЛС] 

nigga22480

Стаж: 7 лет 4 месяца

Сообщений: 211

Симпатии: 13

вижу скорость не так сильная, по этому оставлю этот релиз вне закачки. Спс, за старание всё равно.

Создавать темы 05-Июл-2015 20:20

[Профиль]  [ЛС] 

Николай Сенчи

Стаж: 6 лет 10 месяцев

Сообщений: 88

Симпатии: 6

фазилов, здравствуйте. Пожалуйста дай раздачу на полную круглосуточно, пока не скачают 3-4 человека. По окончании я останусь раздавать на пару недель по возможности 24 часа в сутки. Надеюсь на тебя. Буду благодарен тебе за твоё взаимопонимание.

Создавать темы 07-Июл-2015 17:58

[Профиль]  [ЛС] 

Николай Сенчи

Стаж: 6 лет 10 месяцев

Сообщений: 88

Симпатии: 6

Спасибо за релиз. Остаюсь на раздаче.

Создавать темы 16-Июл-2015 05:40

[Профиль]  [ЛС] 

фазилов ®

Стаж: 3 года 7 месяцев

Сообщений: 310

Симпатии: 344

944374Спасибо за релиз. Остаюсь на раздаче.
И где??? ac
Вау, вижу! aa

Создавать темы 17-Июл-2015 18:44

[Профиль]  [ЛС] 

Supermax83

Стаж: 5 лет 7 месяцев

Сообщений: 24

Симпатии: 3

Кто нибудь встанет на раздачу! Пожалуйста!

Создавать темы 02-Окт-2016 00:26

[Профиль]  [ЛС] 

Supermax83

Стаж: 5 лет 7 месяцев

Сообщений: 24

Симпатии: 3

Да желательно нормальную скорость! Я не уйду с раздачи потом, вы главное дайте возможность скачать!

Создавать темы 02-Окт-2016 00:27

[Профиль]  [ЛС] 

фазилов ®

Стаж: 3 года 7 месяцев

Сообщений: 310

Симпатии: 344

К ДНЮ ВЕЛИКОЙ ПОБЕДЫ. ОТДАЮ ВЕСЬ КАНАЛ НА РАЗДАЧУ ДАННОГО РЕЛИЗА. Ни один даже не поблагодарил.

Создавать темы 02-Май-2017 09:40

[Профиль]  [ЛС] 
Показать сообщения:    
Ответить на тему

Текущее время: 24-Сен 04:48

Часовой пояс: UTC + 5



Вы не можете начинать темы
Вы не можете отвечать на сообщения
Вы не можете редактировать свои сообщения
Вы не можете удалять свои сообщения
Вы не можете голосовать в опросах
Вы не можете прикреплять файлы к сообщениям
Вы не можете скачивать файлы