Игра в куклы / Playing with Dolls (Рене Перез) [2015, США, ужасы, HDRip] (DVO : DeadSno & den904) (Original Eng)

Ответить на тему
 

bbk ®

Стаж: 6 лет 9 месяцев

Сообщений: 435

Симпатии: 479

Игра в куклы / Playing with Dolls
Страна: США
Жанр: ужасы
Год выпуска: 2015
Продолжительность: 01:23:10
Перевод: Любительский (двухголосый закадровый) | DeadSno & den904
Cубтитры: нет
Оригинальная аудиодорожка: английский
Режиссер: Рене Перез
В ролях: Наташа Бласик, Ричард Тайсон, Чарли Глакин, Аланна Форте, Дэвид А. Локхарт, Джон Скудери, John Welsh, Allisun Sturges, Sean Story, Lisa Collins
Описание: Серийного убийцу намеренно выпустили из больнички для душевнобольных преступников, так что он может продолжать свою ярость.
 
Качество видео: HDRip [Рип с BDRip 720p]
Формат видео: AVI
Видео: 1955 kb/s, 720x400
Аудио: Russian / English: AC3, 192 kb/s (2 ch)

MediaInfo

General
Complete name : Playing.with.Dolls.2015.L2.HDRip.avi
Format : AVI
Format/Info : Audio Video Interleave
File size : 1.37 GiB
Duration : 1h 23mn
Overall bit rate : 2 353 Kbps
Writing application : VirtualDubMod 1.5.10.3 | www.virtualdub-fr.org || (build 2550/release)
Writing library : VirtualDubMod build 2550/release
Video #0
ID : 0
Format : MPEG-4 Visual
Format profile : Advanced [email protected]
Format settings, BVOP : 1
Format settings, QPel : No
Format settings, GMC : No warppoints
Format settings, Matrix : Custom
Codec ID : XVID
Codec ID/Hint : XviD
Duration : 1h 23mn
Bit rate : 1 955 Kbps
Width : 720 pixels
Height : 400 pixels
Display aspect ratio : 16:9
Frame rate : 23.976 fps
Color space : YUV
Chroma subsampling : 4:2:0
Bit depth : 8 bits
Scan type : Progressive
Compression mode : Lossy
Bits/(Pixel*Frame) : 0.283
Stream size : 1.14 GiB (83%)
Writing library : XviD 73
Audio #1
ID : 1
Format : AC-3
Format/Info : Audio Coding 3
Mode extension : CM (complete main)
Format settings, Endianness : Big
Codec ID : 2000
Duration : 1h 23mn
Bit rate mode : Constant
Bit rate : 192 Kbps
Channel(s) : 2 channels
Channel positions : Front: L R
Sampling rate : 48.0 KHz
Bit depth : 16 bits
Compression mode : Lossy
Stream size : 114 MiB (8%)
Alignment : Split accross interleaves
Interleave, duration : 42 ms (1.00 video frame)
Interleave, preload duration : 500 ms
Audio #2
ID : 2
Format : AC-3
Format/Info : Audio Coding 3
Mode extension : CM (complete main)
Format settings, Endianness : Big
Codec ID : 2000
Duration : 1h 23mn
Bit rate mode : Constant
Bit rate : 192 Kbps
Channel(s) : 2 channels
Channel positions : Front: L R
Sampling rate : 48.0 KHz
Bit depth : 16 bits
Compression mode : Lossy
Stream size : 114 MiB (8%)
Alignment : Split accross interleaves
Interleave, duration : 42 ms (1.00 video frame)
Interleave, preload duration : 500 ms
Скачать


Последний раз редактировалось: bbk (2016-01-02 14:07), всего редактировалось 4 раз(а)

Создавать темы 05-Июл-2015 12:49

[Профиль]  [ЛС] 

Топик был перенесен из форума Графические редакторы в форум Интернет и Сеть
bbk

Создавать темы 05-Июл-2015 19:07

 

Топик был перенесен из форума Интернет и Сеть в форум Comedy Club
bbk

Создавать темы 05-Июл-2015 19:10

 

Топик был перенесен из форума Comedy Club в форум Программы для работы с мультимедиа и графикой
bbk

Создавать темы 05-Июл-2015 19:12

 

bbk ®

Стаж: 6 лет 9 месяцев

Сообщений: 435

Симпатии: 479

-

Создавать темы 01-Окт-2015 16:24

[Профиль]  [ЛС] 

Топик был перенесен из форума Программы для работы с мультимедиа и графикой в форум Фильмы за 2015
bbk

Создавать темы 01-Янв-2016 21:33

 

death

Стаж: 5 лет 5 месяцев

Сообщений: 39

прикалуетесь чтоли туда сюда кидаете

Создавать темы 09-Янв-2016 19:35

[Профиль]  [ЛС] 
Показать сообщения:    
Ответить на тему

Текущее время: 19-Авг 05:01

Часовой пояс: UTC + 5



Вы не можете начинать темы
Вы не можете отвечать на сообщения
Вы не можете редактировать свои сообщения
Вы не можете удалять свои сообщения
Вы не можете голосовать в опросах
Вы не можете прикреплять файлы к сообщениям
Вы не можете скачивать файлы