Шпион / Spy (Пол Фиг) [2015, США, Feigco Entertainment, Twentieth Century Fox, Боевик, Комедия, WebRip,1080p-LQ] (Dub :[Чистый звук])) (Original Eng)

Ответить на тему
 

Сергей74 ®

Стаж: 2 года 6 месяцев

Сообщений: 211

Симпатии: 293

Шпион / Spy (2015) WEBRip [H.264/1080p-LQ]
Год выпуска: 2015
Страна:США, Feigco Entertainment, Twentieth Century Fox
Жанр: Боевик, Комедия
Продолжительность: 01:59:12
Перевод: Дублированный [Чистый звук] взят отсюда
Режиссер: Пол Фиг
В ролях: Питер Чернин, Пол Фиг, Джесси Хендерсон
Актеры: Мелисса МакКарти, Джейсон Стэйтем, Джуд Лоу, Роуз Бирн, Миранда Харт, Бобби Каннавале, Морена Баккарин, Раад Рави, Джессика Чаффин, Сэм Ричардсон
Описание:Сьюзан Купер всю свою жизнь мечтала стать секретным агентом и даже устроилась работать в ЦРУ. Однако, дальше сотрудника самой низкой ступени ей так и не удалось продвинуться. Понимая, что осуществить свою мечту практически невозможно, она все-таки продолжает надеяться на лучшее и с нетерпением ожидает своего шанса. И вскоре судьба дарит ей такую возможность. Лучший агент проваливает секретное задание, в ходе которого он должен был выяснить местонахождение ядерной бомбы, но, совершенно случайно, застрелил единственного человека, владеющего этой информацией. Через некоторое время службе разведки становится известно, что Рейна Боянова знает, где находится бомба, но она также знает в лицо всех секретных агентов ЦРУ. Теперь у руководства не остается другого выбора, как воспользоваться услугами Сьюзан Купер, но сможет ли она справиться со столь сложной миссией?
Качество: WEBRip [H.264/1080p-LQ]
Формат: MKV
Видео кодек: AVC/H.264
Аудио кодек: аудио 1 - AC3, 128 Kb/s, 48 KHz, (2 ch) (Русский),аудио 2 - AC3 Dolby Digital(Английский)
Видео: AVC/H.264, 1920x1080, ~4300 Кбит/сек
Аудио: AC3, 128 Kb/s, 48 KHz, (2 ch) (Русский)
Аудио: 48 kHz, AC3 Dolby Digital, 2/0 (L,R) ch, ~224 kbps (Английский)
 
Дата мировой премьеры: 15 марта 2015
Дата премьеры в России: 4 июня 2015, «Двадцатый Век Фокс СНГ»
Субтитры: Вшитые неотключаемые (корейские)
15 июля 2015г. Желающие могут перезакачать торрент ..."старую ТС-овскую дорожку удалил,"прицепил" Перевод: [Чистый звук]

Budget

$65,000,000 (estimated)
Opening Weekend
$29,085,719 (USA) (7 June 2015) (3,711 Screens)
Gross
$56,937,000 (USA) (14 June 2015)
$29,085,719 (USA) (7 June 2015)
Weekend Gross
$16,000,000 (USA) (14 June 2015) (3,175 Screens)
$29,085,719 (USA) (7 June 2015) (3,711 Screens)

Знаете ли вы, что...

>>> В сценах драк использовались филиппинские боевые искусства. Для подготовки к этим сценам Мелисса МакКарти проходила обучение у Дайаны Ли Иносанто.
>>> Большая часть фильма была снята в окрестностях озера Балатон в Венгрии.
>>> Во время съемок сцены в самолете, когда крутое пикирование вызвало эффект невесомости, самолет был закреплен на специальном подвесе, который позволял наклонять и поворачивать его в любом направлении. Все движения самолета контролировались при помощи гидравлического управления, а к актерам и каскадерам были привязаны специальные тросы для создания такого ощущения, будто они плывут. Для подготовки к этой сцене Роуз Бирн тренировалась в бассейне, чтобы научиться контролировать свои движения.
>>> Фильм носил рабочее название Susan Cooper («Сьюзан Купер»), однако 28 марта 2014 года название было изменено на «Шпион».
>>> Несколько недель репетиций потребовалось, чтобы снять сцену драки на кухне. Непосредственно на сами съемки ушло два дня.
>>> Во время начальных титров звучит песня Айви Леван «Who Can You Trust».
>>> Во время съемок сцены, где Андрей Данилко (Верка Сердючка) на площади исполняет песню «Dancing Lasha Tumbai», было задействовано более 300 статистов.
>>> Часть экшн-сцен и сцены с вертолетом снимались на открытой съемочной площадке студии Fot and Origo в Будапеште, Венгрия.
>>> Лабиринты известняковых пещер, показанные в фильме, — это реальные пещеры протяженностью в 23 мили, расположенные под пивоваренным заводом в западной части Будапешта, Венгрия.
>>> Персонаж Нэнси был написан Полом Фигом именно для Миранды Харт.
>>> Основные съемки фильма заняли около 12 недель.
>>> Самой большой конструкцией на съемочной площадке была комната связи в ЦРУ.
>>> Для оператора Роберта Д. Йоумена этот фильм стал первым, снятым на цифру.
>>> В эпизодической роли туриста, спрашивающего о том, как пройти в Burger King, снялся муж Мелиссы МакКарти Бен Фэлкоун.
>> Режиссер Пол Фиг снялся в эпизодической роли. Он сыграл пьяного человека, который натыкается на стену и падает, когда Мелисса МакКарти прибывает в свой отель в Париже.

Скриншоты



Media INFO

General
General
Unique ID : 219367979320776655457800124734693965536 (0xA508BC6BE557F114AFCE4A7A3053FEE0)
Complete name : D:\Spion.2015.WEBRip.1080p.nnm-club (1).mkv
Format : Matroska
Format version : Version 4 / Version 2
File size : 3.92 GiB
Duration : 1h 59mn
Overall bit rate : 4 704 Kbps
Movie name : EVO
Encoded date : UTC 2015-07-14 19:23:32
Writing application : mkvmerge v6.8.0 ('Theme for Great Cities') 64bit built on Mar 2 2014 21:34:26
Writing library : libebml v1.3.0 + libmatroska v1.4.1
DURATION : 01:59:12.000000000
NUMBER_OF_FRAMES : 223500
NUMBER_OF_BYTES : 200256000
_STATISTICS_WRITING_APP : mkvmerge v8.1.0 ('Psychedelic Postcard') 64bit
_STATISTICS_WRITING_DATE_UTC : 2015-07-05 12:56:29
_STATISTICS_TAGS : BPS DURATION NUMBER_OF_FRAMES NUMBER_OF_BYTES
Video
ID : 1
Format : AVC
Format/Info : Advanced Video Codec
Format profile : [email protected]
Format settings, CABAC : Yes
Format settings, ReFrames : 4 frames
Codec ID : V_MPEG4/ISO/AVC
Duration : 1h 59mn
Bit rate : 4 300 Kbps
Width : 1 920 pixels
Height : 1 080 pixels
Display aspect ratio : 16:9
Frame rate mode : Variable
Frame rate : 30.000 fps
Color space : YUV
Chroma subsampling : 4:2:0
Bit depth : 8 bits
Scan type : Progressive
Bits/(Pixel*Frame) : 0.069
Stream size : 3.55 GiB (91%)
Writing library : x264 core 130 r2273 b3065e6
Encoding settings : cabac=1 / ref=1 / deblock=1:0:0 / analyse=0x3:0x113 / me=hex / subme=2 / psy=1 / psy_rd=1.00:0.00 / mixed_ref=0 / me_range=16 / chroma_me=1 / trellis=0 / 8x8dct=1 / cqm=0 / deadzone=21,11 / fast_pskip=1 / chroma_qp_offset=0 / threads=6 / lookahead_threads=2 / sliced_threads=0 / nr=0 / decimate=1 / interlaced=0 / bluray_compat=0 / constrained_intra=0 / bframes=3 / b_pyramid=2 / b_adapt=1 / b_bias=0 / direct=1 / weightb=1 / open_gop=0 / weightp=1 / keyint=300 / keyint_min=30 / scenecut=40 / intra_refresh=0 / rc_lookahead=10 / rc=abr / mbtree=1 / bitrate=4300 / ratetol=1.0 / qcomp=0.60 / qpmin=0 / qpmax=69 / qpstep=4 / vbv_maxrate=62500 / vbv_bufsize=78125 / nal_hrd=none / ip_ratio=1.40 / aq=1:1.00
Language : English
Default : Yes
Forced : No
Color primaries : BT.709-5, BT.1361, IEC 61966-2-4, SMPTE RP177
Transfer characteristics : BT.709-5, BT.1361
Matrix coefficients : BT.709-5, BT.1361, IEC 61966-2-4 709, SMPTE RP177
Audio #1
ID : 2
Format : AC-3
Format/Info : Audio Coding 3
Mode extension : CM (complete main)
Format settings, Endianness : Big
Codec ID : A_AC3
Duration : 1h 59mn
Bit rate mode : Constant
Bit rate : 224 Kbps
Channel(s) : 2 channels
Channel positions : Front: L R
Sampling rate : 48.0 KHz
Bit depth : 16 bits
Compression mode : Lossy
Stream size : 191 MiB (5%)
Language : English
Default : No
Forced : No
Audio #2
ID : 3
Format : AC-3
Format/Info : Audio Coding 3
Mode extension : CM (complete main)
Format settings, Endianness : Big
Codec ID : A_AC3
Duration : 1h 59mn
Bit rate mode : Constant
Bit rate : 128 Kbps
Channel(s) : 2 channels
Channel positions : Front: L R
Sampling rate : 48.0 KHz
Bit depth : 16 bits
Compression mode : Lossy
Delay relative to video : 220ms
Stream size : 109 MiB (3%)
Title : Ac3_Russian
Language : Russian
Default : Yes
Forced : Yes


Последний раз редактировалось: Сергей74 (2015-07-15 09:26), всего редактировалось 14 раз(а)

Создавать темы 06-Июл-2015 13:28

[Профиль]  [ЛС] 

Сергей74 ®

Стаж: 2 года 6 месяцев

Сообщений: 211

Симпатии: 293

aa


Последний раз редактировалось: Сергей74 (2015-09-14 01:56), всего редактировалось 10 раз(а)

Создавать темы 06-Июл-2015 13:34

[Профиль]  [ЛС] 

Топик был перенесен из форума Фильмы за 2015 в форум HD-AVC
Mixer City

Создавать темы 06-Июл-2015 15:27

 

Machine

Стаж: 5 лет 2 месяца

Сообщений: 209

Симпатии: 68

Сергей74, А почему MVO в шапке указано? Разве не Dub..!

Создавать темы 14-Июл-2015 00:27

[Профиль]  [ЛС] 

mars751

Стаж: 5 лет 6 месяцев

Сообщений: 227

Симпатии: 113

че так много весит?

Создавать темы 14-Июл-2015 01:42

[Профиль]  [ЛС] 

Сергей74 ®

Стаж: 2 года 6 месяцев

Сообщений: 211

Симпатии: 293

944008Сергей74, А почему MVO в шапке указано? Разве не Dub..!
Спасибо за замечание...Исправил...
944013че так много весит?
Картинка большая (хорошего качества) 1920x1080


Последний раз редактировалось: Сергей74 (2015-07-23 20:21), всего редактировалось 1 раз

Создавать темы 14-Июл-2015 03:50

[Профиль]  [ЛС] 

Сергей74 ®

Стаж: 2 года 6 месяцев

Сообщений: 211

Симпатии: 293

Желающие могут перезакачать торрент ...старую ТС-овскую дорожку удалил,теперь Перевод: [Чистый звук]

Создавать темы 15-Июл-2015 00:58

[Профиль]  [ЛС] 

thayurec

Стаж: 4 года 4 месяца

Сообщений: 11

Симпатии: 2

сабы вшитые так-же остались?

Создавать темы 13-Сен-2015 02:35

[Профиль]  [ЛС] 
Показать сообщения:    
Ответить на тему

Текущее время: 22-Окт 05:41

Часовой пояс: UTC + 5



Вы не можете начинать темы
Вы не можете отвечать на сообщения
Вы не можете редактировать свои сообщения
Вы не можете удалять свои сообщения
Вы не можете голосовать в опросах
Вы не можете прикреплять файлы к сообщениям
Вы не можете скачивать файлы