Снайпер: Герой сопротивления (Арман Геворгян) [2015 г., Военный, драма, приключения, WEB-DLRip] iTunes

Ответить на тему
 

RecobaZico ®

Стаж: 2 года 7 месяцев

Сообщений: 22

Симпатии: 94

Снайпер: Герой сопротивления Год выпуска: 2015
Страна: Россия, ООО 'Нью Арт Синема Продакшн'
Жанр: Военный, драма, приключения
Продолжительность: 01:20:41
Перевод: Не требуется -Режиссер: Арман Геворгян-В ролях: Гоша Куценко, Денис Бургазлиев, Анна Снаткина, Владимир Гостюхин, Борис Романов, Дирк Мартенс, Юлия Кадушкевич, Георгий Сивохин, Сергей Широчин, Олег Вебер-Описание: Тяжелый 1941-й год. Немецкие войска продолжают наступление, сжигая целые города и села, оставляя после себя руины и пепелища. Кажется, уже ничто не спасет Советский Союз от поражения, а Красную Армию - от тотального уничтожения оккупантами. В эпицентре этих трагических событий оказываются идейные враги - красноармеец, снайпер Николай Волохов и сын белого офицера Андре Ренье. В других обстоятельствах они могли бы оказаться по разные стороны баррикад - ведь отца Волохова убил белогвардейский офицер. Но сейчас им нечего делить. У них один враг - немцы...-Доп. информация:
 -Качество: WEB-DLRip
Формат: AVI
Видео кодек: XviD
Аудио кодек: AC3
Видео: XviD, 2229 Кбит/с, 720x296
Аудио: АС3, 2 ch, 192 Кбит/с

Знаете ли вы, что...

Съемки проходили в Белоруссии и в Польше, где создатели смогли договориться о работе группы в старинном замке Чоха — крепости, которая была возведена в XIII века на берегу озера Лесна.

MediaInfo

Location: D:\Рекоба2015\Snajper.Geroj.soprotivlenija.2015.O.WEBDLRip.1400MB.MegaPeer.avi
Filename: Snajper.Geroj.soprotivlenija.2015.O.WEBDLRip.1400MB.MegaPeer.avi
File format: .avi (AVI)
File size: 1.37 GB
Duration: 1h 20mn
Navigate by chapters: Nope
Bitrate (all streams): 2 431 Kbps
...with: VirtualDubMod 1.5.10.3 | www.virtualdub-fr.org || (build 2550/release)
...by using: VirtualDubMod build 2550/release
Title: Snajper.Geroj.soprotivlenija.2015.O.WEBDLRip.1400MB[tas-ix.net]
Stream type: Video
Duration: 01:20:40
Codec: MPEG-4 Visual
Codec Profile: Advanced [email protected]
Codec ID: XVID
Video Size: 720 x 296 (2.40:1)
Frame rate: 25.000 fps
Stream size: 1.26 GiB (92%)
Bitrate: 2 229 Kbps
Codec library: XviD 73
Colorspace: YUV
Scantype: Progressive
Bitdepth: 8 bits
Stream type: Audio #1
Duration: 01:20:40.720
Codec: AC-3
Codec ID: 2000
Samplerate: 48.0 KHz
Channels: 2 channels
Bitrate: 192 Kbps
Bitrate/Mode: Constant
Stream size: 111 MiB (8%)
Bitdepth: 16 bits
Compression mode: Lossy

Скриншоты



Создавать темы 07-Июл-2015 17:37

[Профиль]  [ЛС] 

Shera_best

Стаж: 4 года

Сообщений: 40

Симпатии: 12

плиз дайте скорость, хочу смотреть.

Создавать темы 07-Июл-2015 21:07

[Профиль]  [ЛС] 

pct

Стаж: 6 лет 10 месяцев

Сообщений: 120

Симпатии: 12

Гоша, буэээ...

Создавать темы 15-Июл-2015 21:38

[Профиль]  [ЛС] 

sem

Стаж: 7 лет 2 месяца

Сообщений: 123

Симпатии: 6

ка фильм с участием Гошана?))))

Создавать темы 17-Июл-2015 20:11

[Профиль]  [ЛС] 

Ershov

Стаж: 4 года 10 месяцев

Сообщений: 61

Симпатии: 6

Да уж... Только снайперов Куценко играть не хватало... А как он самолет со снайперки сбил - ваще жесть! ag

Создавать темы 24-Июл-2015 08:35

[Профиль]  [ЛС] 

greensniper

Стаж: 2 года 7 месяцев

Сообщений: 16

Симпатии: 10

А с 6-канальным звуком нет рипов?

Создавать темы 05-Окт-2015 17:22

[Профиль]  [ЛС] 

Rikardo

Стаж: 4 года

Сообщений: 48

Симпатии: 5

да уж офицер немцев горбатый. ну хоть что-то.

Создавать темы 01-Май-2016 11:13

[Профиль]  [ЛС] 
Показать сообщения:    
Ответить на тему

Текущее время: 18-Дек 02:12

Часовой пояс: UTC + 5



Вы не можете начинать темы
Вы не можете отвечать на сообщения
Вы не можете редактировать свои сообщения
Вы не можете удалять свои сообщения
Вы не можете голосовать в опросах
Вы не можете прикреплять файлы к сообщениям
Вы не можете скачивать файлы