Не шутите с Zоханом! / You Don't Mess with the Zohan (Дэннис Дуган / Dennis Dugan) [2008, США, боевик, комедия, HDRip] (Dub)

Ответить на тему
 

Cheburashka ®

Стаж: 5 лет 8 месяцев

Сообщений: 54

Симпатии: 41

Не шутите с Zоханом! / You Don't Mess with the Zohan
«Уложу любую...»
Страна: США
Жанр: боевик, комедия, ...
Год выпуска: 2008
Продолжительность: 01:56:54
Перевод: Профессиональный (дублированный)
Cубтитры: русские
Режиссер: Дэннис Дуган / Dennis Dugan-В ролях: Адам Сэндлер , Джон Туртурро , Эммануэль Шрики , Ник Свардсон , Лэйни Кэзан , Идо Муссари , Роб Шнайдер-Описание: Зохан — израильский коммандос, агент Моссада и антитеррорист — во время захвата известного мирового преступника инсценирует собственную гибель, дабы завязать с героическим прошлым и осуществить свою давнюю мечту: стать стилистом в Нью-Йорке. Вооружившись ножницами и желанным руководством, он решает начать свою карьеру в небольшом салоне.
Слава о повышенном внимании к деталям и оказании особого сервиса быстро распространяется среди представительниц прекрасного пола, и желающих оказаться в его кресле становится пруд пруди. Но внезапно его узнают и над романтически настроенным Зоханам нависает угроза потерять не только полюбившуюся карьеру, но на этот раз и собственную жизнь.-возраст

рейтинг MPAA детям до 13 лет просмотр не желателен
Качество видео: HDRip
Формат видео: AVI
Видео: 720x384 (1.88:1), 23.976 fps, XviD build 50 ~1325 kbps avg, 0.20 bit/pixel
Аудио: 48 kHz, AC3 Dolby Digital, 3/2 (L,C,R,l,r) + LFE ch, ~448 kbps
Формат субтитров: softsub (SRT)

MediaInfo

General
Complete name : Ne.shutite.s.Zohanom.Unrated.2008.HDRip.avi
Format : AVI
Format/Info : Audio Video Interleave
File size : 1.46 GiB
Duration : 1h 56mn
Overall bit rate : 1 783 Kbps
Writing application : VirtualDubMod 1.5.10.2 (build 2540/release)
Writing library : VirtualDubMod build 2540/release
Video
ID : 0
Format : MPEG-4 Visual
Format profile : Advanced [email protected]
Format settings, BVOP : 2
Format settings, QPel : No
Format settings, GMC : No warppoints
Format settings, Matrix : Default (MPEG)
Codec ID : XVID
Codec ID/Hint : XviD
Duration : 1h 56mn
Bit rate : 1 325 Kbps
Width : 720 pixels
Height : 384 pixels
Display aspect ratio : 1.85:1
Frame rate : 23.976 fps
Color space : YUV
Chroma subsampling : 4:2:0
Bit depth : 8 bits
Scan type : Progressive
Compression mode : Lossy
Bits/(Pixel*Frame) : 0.200
Stream size : 1.08 GiB (74%)
Writing library : XviD 1.2.1 (UTC 2008-12-04)
Audio
ID : 1
Format : AC-3
Format/Info : Audio Coding 3
Mode extension : CM (complete main)
Format settings, Endianness : Big
Codec ID : 2000
Duration : 1h 56mn
Bit rate mode : Constant
Bit rate : 448 Kbps
Channel(s) : 6 channels
Channel positions : Front: L C R, Side: L R, LFE
Sampling rate : 48.0 KHz
Bit depth : 16 bits
Compression mode : Lossy
Stream size : 375 MiB (25%)
Alignment : Split accross interleaves
Interleave, duration : 42 ms (1.00 video frame)
Interleave, preload duration : 500 ms

Скриншот c названием фильма

Скриншоты





Последний раз редактировалось: Cheburashka (2015-10-09 23:18), всего редактировалось 1 раз

Создавать темы 09-Июл-2015 19:05

[Профиль]  [ЛС] 

Сергей74

Стаж: 2 года 6 месяцев

Сообщений: 211

Симпатии: 293

в названии Unrated ..в описании можешь указать zd

Создавать темы 15-Июл-2015 09:17

[Профиль]  [ЛС] 
Показать сообщения:    
Ответить на тему

Текущее время: 23-Окт 18:40

Часовой пояс: UTC + 5



Вы не можете начинать темы
Вы не можете отвечать на сообщения
Вы не можете редактировать свои сообщения
Вы не можете удалять свои сообщения
Вы не можете голосовать в опросах
Вы не можете прикреплять файлы к сообщениям
Вы не можете скачивать файлы