Дальняя дорога / The Longest Ride (Джордж Тиллман мл. ) [2015., драма, мелодрама, HDRip] [iTunes]

Ответить на тему
 

mp1988 ®

Стаж: 6 лет 8 месяцев

Сообщений: 607

Симпатии: 971

Дальняя дорога / The Longest Ride- Год: 2015
Страна: США
Жанр: драма, мелодрама
Режиссер: Джордж Тиллман мл. / George Tillman Jr.
Сценарий: Крэйг Болотин, Николас Спаркс
Продюсер: Марти Бауэн, Вик Годфри, Тереза Парк
Композитор: Марк Айшем
Продолжительность: 02:08:18
Перевод: Полное дублирование [iTunes]-В ролях:
-Описание:Люк — экс-чемпион по родео, раздумывающий над возвращением в спорт. София — выпускница колледжа, получившая заманчивое предложение о работе в сфере искусства в Нью-Йорке. В то время как молодые люди пытаются сделать нелегкий выбор между чувствами и мечтами, жизнь сталкивает их со стариком Айрой. Воспоминания нового друга о его полувековых отношениях с женой вдохновляют Софию и Люка на главные решения в их жизни. Два поколения, две истории, вечная любовь.-Бюджет: $34 000 000-Рейтинг:  

Знаете ли вы, что...

  • Фильм снят по одноименному роману Николаса Спаркса.
  • Фильм был снят в Северной Каролине.
  • В начале фильма в комнате Марсии и Софии можно увидеть плакат с надписью «Charlotte Art Museum» («Музей искусств в Шарлотте»). Актриса Бритт Робертсон, исполнившая роль Софии, родом из города Шарлотт (Северная Каролина, США).
  • Внимание! Список ошибок в фильме может содержать спойлеры. Будьте осторожны.
  • События фильма разворачиваются в 2007 году, однако герои используют смартфоны, вышедшие несколькими годами позже.
  • В сцене в баре шляпа Люка, которую надела София, резко меняет свое расположение при смене кадра.
-Качество: HDRip
Формат: AVI [1.46 GiB]
Видео: XviD, 720x304 (2.35:1), 1234 kbps (0.235 b/px), 23.98 fps
Аудио: AC3, 385 kbps (CBR), 48.0 KHz (16 bits), 6 ch

Скриншоты

MediaInfo

General
Format                                   : AVI
Format/Info                              : Audio Video Interleave
File size                                : 1.46 GiB
Duration                                 : 2h 8mn
Overall bit rate                         : 1 626 Kbps
Writing application                      : VirtualDubMod 1.5.10.3 | www.virtualdub-fr.org || (build 2550/release)
Writing library                          : VirtualDubMod build 2550/release
Video
ID                                       : 0
Format                                   : MPEG-4 Visual
Format profile                           : Advanced [email protected]
Format settings, BVOP                    : 2
Format settings, QPel                    : No
Format settings, GMC                     : No warppoints
Format settings, Matrix                  : Default (MPEG)
Muxing mode                              : Packed bitstream
Codec ID                                 : XVID
Codec ID/Hint                            : XviD
Duration                                 : 2h 8mn
Bit rate                                 : 1 233 Kbps
Width                                    : 720 pixels
Height                                   : 304 pixels
Display aspect ratio                     : 2.35:1
Frame rate                               : 23.976 fps
Color space                              : YUV
Chroma subsampling                       : 4:2:0
Bit depth                                : 8 bits
Scan type                                : Progressive
Compression mode                         : Lossy
Bits/(Pixel*Frame)                       : 0.235
Stream size                              : 1.11 GiB (76%)
Writing library                          : XviD 1.2.1 (UTC 2008-12-04)
Audio
ID                                       : 1
Format                                   : AC-3
Format/Info                              : Audio Coding 3
Mode extension                           : CM (complete main)
Format settings, Endianness              : Big
Codec ID                                 : 2000
Duration                                 : 2h 8mn
Bit rate mode                            : Constant
Bit rate                                 : 384 Kbps
Channel(s)                               : 6 channels
Channel positions                        : Front: L C R, Side: L R, LFE
Sampling rate                            : 48.0 KHz
Bit depth                                : 16 bits
Compression mode                         : Lossy
Stream size                              : 352 MiB (24%)
Alignment                                : Split accross interleaves
Interleave, duration                     : 42 ms (1.00 video frame)
Interleave, preload duration             : 500 ms


Последний раз редактировалось: mp1988 (2015-09-01 11:17), всего редактировалось 3 раз(а)

Создавать темы 09-Июл-2015 20:50

[Профиль]  [ЛС] 

zhozef

Стаж: 5 лет 9 месяцев

Сообщений: 35

Симпатии: 6

Рейтинг IMDB: 7,2/10

Создавать темы 13-Июл-2015 18:18

[Профиль]  [ЛС] 

hamilion

Стаж: 5 лет 1 месяц

Сообщений: 155

Симпатии: 14

пишет:не возможно загрузить --\\-- торрент неверно закодирован
что делать?

Создавать темы 14-Июл-2015 21:10

[Профиль]  [ЛС] 

killer_said

Стаж: 6 лет 8 месяцев

Сообщений: 183

Симпатии: 54

Да у меня тоже, или надо обновить уторрент?

Создавать темы 02-Авг-2015 16:56

[Профиль]  [ЛС] 
Показать сообщения:    
Ответить на тему

Текущее время: 20-Окт 17:45

Часовой пояс: UTC + 5



Вы не можете начинать темы
Вы не можете отвечать на сообщения
Вы не можете редактировать свои сообщения
Вы не можете удалять свои сообщения
Вы не можете голосовать в опросах
Вы не можете прикреплять файлы к сообщениям
Вы не можете скачивать файлы