Номер 44 / Child 44 (Даниэль Эспиноса / Daniel Espinosa) [2015, триллер, драма, WEB-DLRip] iTunes

Ответить на тему
 

mp1988 ®

Стаж: 6 лет 7 месяцев

Сообщений: 607

Симпатии: 971

Номер 44 / Child 44-«Можно ли найти убийцу, которого нет»- Год: 2015
Страна: США, Великобритания, Чехия, Румыния
Жанр: триллер, драма
Режиссер: Даниэль Эспиноса / Daniel Espinosa
Сценарий: Ричард Прайс, Том Роб Смит
Продюсер: Майкл Шефер, Ридли Скотт, Грег Шапиро
Композитор: Йон Экстранд
Продолжительность: 02:11:30
Перевод: Полное дублирование [iTunes]-В ролях:

Венсан Кассель, Ксавьер Аткинс, Марк Льюис Джонс, Фарес Фарес-Описание:Действие фильма развернется в СССР времен Иосифа Сталина. Главный герой — дискредитированный офицер советской разведки Лев Демидов. Он расследует серию детских убийств, но его деятельность вызывает подозрение у параноидального советского правительства.-Бюджет: $50 000 000-Рейтинг: 

Знаете ли вы, что...

  • Фильм снят по одноименному роману Тома Роба Смита, первому из трилогии о Льве Демидове, написанному в 2008 году. Роман был номинирован на 17 международных премий.
  • В процессе съемок оператор Филипп Русло был заменен Оливером Вудом.
  • На роль, которую получил Венсан Кассель, сперва рассматривался Филип Сеймур Хоффман.
  • Первоначально фильм должен был снимать Ридли Скотт.
  • На главную роль претендовал Кристиан Бэйл.
  • Сценарий этого фильма был в «Черном списке» лучших неспродюсированных сценариев 2008 года.
  • Компания «Централ Партнершип» отозвала из Министерства культуры РФ заявку на получение прокатного удостоверения для фильма «Номер 44», принимая на себя любые вытекающие коммерческие последствия этого решения. Выход в российский прокат был запланирован на 17 апреля 2015 года, однако по итогам пресс-просмотра в Министерство культуры РФ поступили вопросы, касающиеся содержания фильма, в первую очередь искажения исторических фактов и своеобразных трактовок событий до, во время и после Великой Отечественной войны, а также образов и характеров советских граждан той исторической эпохи. 14 апреля состоялся просмотр финальной версии картины с участием экспертов, представителей министерства, российского прокатчика — компании «Централ Партнершип» и СМИ. После данного просмотра мнение прокатчиков и представителей минкультуры совпали: прокат подобного рода фильмов в преддверии 70-летия Победы недопустим.
  • После отмены показа фильма в России его премьеры отменили в Белоруссии, Киргизии, Казахстане, Украине, Узбекистане и Грузии.
  • Съемки проходили в чешских городах, а именно в Праге и Остраве.
  • еще 6 фактов
-Качество: WEB-DLRip
Формат: AVI [1.46 GiB]
Видео: XviD, 720x400 (16:9), 1197 kbps (0.166 b/px), 25.00 fps
Аудио: AC3, 385 kbps (CBR), 48.0 KHz (16 bits), 6 ch

MediaInfo

General
Complete name                            : D:\FILM\44.2015.WEB-DLRip.1.46GB.avi
Format                                   : AVI
Format/Info                              : Audio Video Interleave
File size                                : 1.46 GiB
Duration                                 : 2h 11mn
Overall bit rate                         : 1 591 Kbps
Writing application                      : VirtualDubMod 1.5.10.3 | www.virtualdub-fr.org || (build 2550/release)
Writing library                          : VirtualDubMod build 2550/release
Video
ID                                       : 0
Format                                   : MPEG-4 Visual
Format profile                           : Advanced [email protected]
Format settings, BVOP                    : 2
Format settings, QPel                    : No
Format settings, GMC                     : No warppoints
Format settings, Matrix                  : Default (MPEG)
Codec ID                                 : XVID
Codec ID/Hint                            : XviD
Duration                                 : 2h 11mn
Bit rate                                 : 1 197 Kbps
Width                                    : 720 pixels
Height                                   : 400 pixels
Display aspect ratio                     : 16:9
Frame rate                               : 25.000 fps
Color space                              : YUV
Chroma subsampling                       : 4:2:0
Bit depth                                : 8 bits
Scan type                                : Progressive
Compression mode                         : Lossy
Bits/(Pixel*Frame)                       : 0.166
Stream size                              : 1.10 GiB (75%)
Writing library                          : XviD 1.2.1 (UTC 2008-12-04)
Audio
ID                                       : 1
Format                                   : AC-3
Format/Info                              : Audio Coding 3
Mode extension                           : CM (complete main)
Format settings, Endianness              : Big
Codec ID                                 : 2000
Duration                                 : 2h 11mn
Bit rate mode                            : Constant
Bit rate                                 : 384 Kbps
Channel(s)                               : 6 channels
Channel positions                        : Front: L C R, Side: L R, LFE
Sampling rate                            : 48.0 KHz
Bit depth                                : 16 bits
Compression mode                         : Lossy
Stream size                              : 361 MiB (24%)
Alignment                                : Split accross interleaves
Interleave, duration                     : 40 ms (1.00 video frame)
Interleave, preload duration             : 500 ms

Скриншоты





Последний раз редактировалось: mp1988 (2015-07-14 22:10), всего редактировалось 1 раз

Создавать темы 10-Июл-2015 20:18

[Профиль]  [ЛС] 

Топик был перенесен из форума неоформлено/недооформлено в форум Фильмы за 2015
mp1988

Создавать темы 10-Июл-2015 20:33

 

zhozef

Стаж: 5 лет 8 месяцев

Сообщений: 35

Симпатии: 6

Рейтинг: 6,4/10 IMDb

Создавать темы 11-Июл-2015 12:54

[Профиль]  [ЛС] 

dilshod5254

Стаж: 6 лет 5 месяцев

Сообщений: 106

Симпатии: 14

блин последняя представляю какого это))

Создавать темы 13-Июл-2015 16:20

[Профиль]  [ЛС] 

timawow1

Стаж: 6 лет 9 месяцев

Сообщений: 59

Симпатии: 32

Фильм хороший советую посмотреть! Хорошая игра актёров + хороший сюжет вот жанр бы я сказал другой тут больше детектив 4ем триллер, драма, да тут есть это,а вот нас4ёт триллера как то не уверен))) В целом фильм вышел классный посмотреть стоит! Кстати времена Сталина похожи))) 4уть 4то расстрел=)

Создавать темы 14-Июл-2015 20:04

[Профиль]  [ЛС] 

hamilion

Стаж: 5 лет

Сообщений: 155

Симпатии: 14

какого ***
рейтинг принадлежит фильму "Вверх"

Создавать темы 14-Июл-2015 21:04

[Профиль]  [ЛС] 

hamilion

Стаж: 5 лет

Сообщений: 155

Симпатии: 14

IMDB 6,4

Создавать темы 14-Июл-2015 21:05

[Профиль]  [ЛС] 

mars751

Стаж: 5 лет 5 месяцев

Сообщений: 227

Симпатии: 113

944189какого ***
рейтинг принадлежит фильму "Вверх"
ag ag ag

Создавать темы 14-Июл-2015 21:10

[Профиль]  [ЛС] 

MNjon

Стаж: 5 лет

Сообщений: 101

Симпатии: 5

Великолепный состав актеров!! Посмотрим фильм!! :)

Создавать темы 18-Июл-2015 18:04

[Профиль]  [ЛС] 

pacanso

Стаж: 4 года 6 месяцев

Сообщений: 3

Господа, поддайте жару скорости

Создавать темы 19-Авг-2016 10:26

[Профиль]  [ЛС] 
Показать сообщения:    
Ответить на тему

Текущее время: 21-Сен 03:01

Часовой пояс: UTC + 5



Вы не можете начинать темы
Вы не можете отвечать на сообщения
Вы не можете редактировать свои сообщения
Вы не можете удалять свои сообщения
Вы не можете голосовать в опросах
Вы не можете прикреплять файлы к сообщениям
Вы не можете скачивать файлы