Батальонъ (Дмитрий Месхиев) [2015, драма, военный, история, WEB-DLRip] iTunes

Ответить на тему
 

mp1988 ®

Стаж: 6 лет 8 месяцев

Сообщений: 607

Симпатии: 971

Батальонъ-«Первый. Женский. Бессмертный»- Год: 2015
Страна: Россия
Жанр: драма, военный, история
Режиссер: Дмитрий Месхиев
Сценарий: Илья Авраменко, Игорь Угольников, Евгений Айзикович
Продюсер: Игорь Угольников, Фёдор Бондарчук, Дмитрий Рудовский
Композитор: Юрий Потеенко
Продолжительность: 02:03:45
Перевод: Оригинал-В ролях:
-Описание:Весна 1917-го года. Февральская революция изменила жизнь России и ход Великой войны. Государь уже отрёкся от престола. В окопах, где противостояние с немцами длится уже не один год, вовсю ведут свою пропаганду большевики. Они призывают к миру с неприятелем. Российское офицерство фактически ничего не может решить без одобрения так называемых солдатских комитетов. Армия находится на пороге окончательного разложения.По приказу Временного правительства для поднятия боевого духа создаётся женский «Батальон смерти» под командованием георгиевского кавалера Марии Бочкарёвой. Своей службой «Батальон смерти» подаёт пример храбрости, мужества и спокойствия, поднимает дух солдат и доказывает, что каждая из этих женщин-героев достойна звания воина русской армии.-Бюджет: $10 000 000-Рейтинг: -Качество: WEB-DLRip
Формат: AVI [1.37 GiB]
Видео: XviD, 720x304 (2.35:1), 1191 kbps (0.218 b/px), 25.00 fps
Аудио: AC3, 385 kbps (CBR), 48.0 KHz (16 bits), 6 ch

MediaInfo

General
Complete name                            : D:\FILM\Batalion.2015.O.WEB-DLRip.1400MB.avi
Format                                   : AVI
Format/Info                              : Audio Video Interleave
File size                                : 1.37 GiB
Duration                                 : 2h 3mn
Overall bit rate                         : 1 584 Kbps
Writing application                      : VirtualDubMod 1.5.10.2 (build 2540/release)
Writing library                          : VirtualDubMod build 2540/release
Video
ID                                       : 0
Format                                   : MPEG-4 Visual
Format profile                           : Advanced [email protected]
Format settings, BVOP                    : 2
Format settings, QPel                    : No
Format settings, GMC                     : No warppoints
Format settings, Matrix                  : Default (MPEG)
Codec ID                                 : XVID
Codec ID/Hint                            : XviD
Duration                                 : 2h 3mn
Bit rate                                 : 1 191 Kbps
Width                                    : 720 pixels
Height                                   : 304 pixels
Display aspect ratio                     : 2.35:1
Frame rate                               : 25.000 fps
Color space                              : YUV
Chroma subsampling                       : 4:2:0
Bit depth                                : 8 bits
Scan type                                : Progressive
Compression mode                         : Lossy
Bits/(Pixel*Frame)                       : 0.218
Stream size                              : 1.03 GiB (75%)
Writing library                          : XviD 1.2.1 (UTC 2008-12-04)
Audio
ID                                       : 1
Format                                   : AC-3
Format/Info                              : Audio Coding 3
Mode extension                           : CM (complete main)
Format settings, Endianness              : Big
Codec ID                                 : 2000
Duration                                 : 2h 3mn
Bit rate mode                            : Constant
Bit rate                                 : 384 Kbps
Channel(s)                               : 6 channels
Channel positions                        : Front: L C R, Side: L R, LFE
Sampling rate                            : 48.0 KHz
Bit depth                                : 16 bits
Compression mode                         : Lossy
Stream size                              : 340 MiB (24%)
Alignment                                : Split accross interleaves
Interleave, duration                     : 40 ms (1.00 video frame)
Interleave, preload duration             : 500 ms

Скриншоты

Создавать темы 10-Июл-2015 21:07

[Профиль]  [ЛС] 

Топик был перенесен из форума неоформлено/недооформлено в форум Фильмы за 2015
mp1988

Создавать темы 10-Июл-2015 21:14

 

Shera_best

Стаж: 3 года 10 месяцев

Сообщений: 40

Симпатии: 12

урааа, наконец-то дождался в смотрибельном качестве.
посмотрим с удовольствием

Создавать темы 15-Июл-2015 19:28

[Профиль]  [ЛС] 

Motorola

Стаж: 8 лет 9 месяцев

Сообщений: 23

фильм хороший, но кожевниковой делать на постере нечего :-)

Создавать темы 10-Авг-2015 11:19

[Профиль]  [ЛС] 
Показать сообщения:    
Ответить на тему

Текущее время: 19-Окт 06:35

Часовой пояс: UTC + 5



Вы не можете начинать темы
Вы не можете отвечать на сообщения
Вы не можете редактировать свои сообщения
Вы не можете удалять свои сообщения
Вы не можете голосовать в опросах
Вы не можете прикреплять файлы к сообщениям
Вы не можете скачивать файлы