Пожиратель Богов / God Eater [TV+Special] [01-09+01-01 из 13+01] [Без хардсаба] [RUS(ext), JAP] & [01-09+00 из 13+01] [2015 г., Экшен, Фэнтези, Приключения, Боевик, HDTVRip] [720p]

Ответить на тему
 

FireHowler ®

Стаж: 4 года 5 месяцев

Сообщений: 270

Симпатии: 153

Пожиратель Богов / God Eater / ゴッドイーター- Год выпуска: 2015 г.
Страна: Япония
Жанр: Экшен, Фэнтези, Приключения, Боевик-Тип: TV-Продолжительность: 13 эп. по 00:23:00 + 01 спешл по 00:12:57
Режиссер: Хирао Такаюки
Студия: UFO Table-Перевод:
• Русские субтитры от Doflein & Nika_Elrik & Oreki
• Русские субтитры от Sora_P3_Heaven-Описание:
К 2071 году человечество выкосило нашествие доселе неизвестных чудовищ - Арагами. Уцелевшие общины отгородились от монстров высокими стенами, но их лидеры прекрасно понимают, что пассивная оборона ведет к поражению. Единственная надежда человечества – общество «Фенрир», создающее супервоинов, в которых воедино слиты людская ярость и гены противника. Такие мастера боя, далеко превосходящие рядовых Арагами, получают почетное звание «пожирателей богов». Молодой японец Рэнка Уцуги – новичок «Фенрира», он из немногих рекрутов, совместимых с клетками чужаков. Конечно, природная горячность и стремление к мести мешают парню понять, что одного желания мало: истинным «пожирателем» можно стать только после долгих тренировок и овладения Божьей Аркой – именным оружием каждого воина. Ничего, на то есть отцы-командиры и верные боевые товарищи: не знаешь – научат, не хочешь – заставят!-Качество: HDTVRip | Рип: [Ohys-Raws]
Тип релиза: Без хардсаба
Формат видео: MP4
Наличие линковки: Нет
Видео: AVC, 1280x720, ~3100 kbps, 23.976 fps [8 bit]
Аудио:
1. Russian AC3, 48 KHz, 192 kbps, 2 ch (внешние) - [Anilibria];
2. Russian AC3, 48 KHz, 192 kbps, 2 ch (внешние) - [LE-Production];
3. Russian AC3, 48 KHz, 192 kbps, 2 ch (внешние) - [Animedia];
4. Russian AC3, 44.1 KHz, 128 kbps, 2 ch (внешние) - [JazzWay Anime];
5. Russian AC3, 44.1 KHz, 128 kbps, 2 ch (внешние) - [AOS];
6. Russian AC3, 48 KHz, 128 kbps, 2 ch (внешние) - [SHIZA];
7. Japanese AAC, 48.0 KHz, ~192 kbps, 2 ch;
Субтитры:
• Russian: ASS, внешние;

Озвучка

• Трехголосая от Lupin & Reni & Itashi (Anilibria)
• Двухголосая от (муж/жен) Nazel & Freya (Animedia)
• Многоголосая от Рапунцель-тян & Lucifer & Apollo & KRaeved & Joyni (JazzWay Anime)
• Многоголосая от Katsuragi & Dayske & Molly & Myauritsia (AOS)
• Трехголосая от Primary_Alex & Emeri & Shoker (LE-Production)
• Трехголосая от Muvvekk & Elrid & Chigusa (SHIZA)

Media Info

Video
ID : 1
Format : AVC
Format/Info : Advanced Video Codec
Format profile : [email protected]
Format settings, CABAC : Yes
Format settings, ReFrames : 4 frames
Codec ID : avc1
Codec ID/Info : Advanced Video Coding
Duration : 12mn 57s
Bit rate : 2 871 Kbps
Maximum bit rate : 10.3 Mbps
Width : 1 280 pixels
Height : 720 pixels
Display aspect ratio : 16:9
Frame rate mode : Constant
Frame rate : 23.976 fps
Color space : YUV
Chroma subsampling : 4:2:0
Bit depth : 8 bits
Scan type : Progressive
Bits/(Pixel*Frame) : 0.130
Stream size : 266 MiB (93%)
Writing library : x264 core 146 r2538 121396c
Encoding settings : cabac=1 / ref=3 / deblock=1:0:0 / analyse=0x1:0x111 / me=hex / subme=7 / psy=1 / psy_rd=1.00:0.00 / mixed_ref=1 / me_range=16 / chroma_me=1 / trellis=1 / 8x8dct=0 / cqm=0 / deadzone=21,11 / fast_pskip=1 / chroma_qp_offset=-2 / threads=12 / lookahead_threads=2 / sliced_threads=0 / nr=0 / decimate=1 / interlaced=0 / bluray_compat=0 / constrained_intra=0 / bframes=3 / b_pyramid=2 / b_adapt=1 / b_bias=0 / direct=1 / weightb=1 / open_gop=0 / weightp=2 / keyint=240 / keyint_min=1 / scenecut=40 / intra_refresh=0 / rc_lookahead=40 / rc=crf / mbtree=1 / crf=20.0 / qcomp=0.60 / qpmin=0 / qpmax=69 / qpstep=4 / ip_ratio=1.40 / aq=1:1.50
Encoded date : UTC 2015-07-05 14:23:17
Tagged date : UTC 2015-07-05 14:23:18
Color range : Limited
Color primaries : BT.709
Transfer characteristics : BT.709
Matrix coefficients : BT.709
Audio
ID : 2
Format : AAC
Format/Info : Advanced Audio Codec
Format profile : LC
Codec ID : 40
Duration : 12mn 57s
Bit rate mode : Variable
Bit rate : 213 Kbps
Maximum bit rate : 253 Kbps
Channel(s) : 2 channels
Channel positions : Front: L R
Sampling rate : 48.0 KHz
Compression mode : Lossy
Stream size : 19.8 MiB (7%)
Language : Japanese
Encoded date : UTC 2015-07-05 14:16:29
Tagged date : UTC 2015-07-05 14:23:18

Список серий

01. Уцуги Ленка
02. Линдоу Амамия
03. Алиса Ильинична Омела
04. Эгида
05. Око за око
06. Оставайся верным
07. Распустившийся цветок
08. Сакуя Татибана
09. Сома Шикзаль
Special:
01. Отсюда начинается ваша история / Extra

Скриншоты



Последний раз редактировалось: FireHowler (2015-10-21 21:03), всего редактировалось 9 раз(а)

Создавать темы 13-Июл-2015 07:11

[Профиль]  [ЛС] 

FireHowler ®

Стаж: 4 года 5 месяцев

Сообщений: 270

Симпатии: 153

1 серия.

Создавать темы 17-Июл-2015 11:14

[Профиль]  [ЛС] 

Азиз87

Стаж: 4 года 11 месяцев

Сообщений: 752

Симпатии: 143

Автор рипа: Ohys-Raws найн Леопарды! Хотя это не так важно т.к. тайтл хорош!
General
Complete name : H:\ANIME\Sayonara Zetsubou Sensei [BD][720p]\[Ohys-Raws] Sayonara Zetsubou Sensei (BD 1280x720 x264 AAC)\Sayonara Zetsubou Sensei - 01 (BD 1280x720 x264 AAC).mp4
Format : MPEG-4
Format profile : Base Media
Codec ID : isom
File size : 441 MiB
Duration : 23mn 41s
Overall bit rate mode : Variable
Overall bit rate : 2 604 Kbps
Encoded date : UTC 2015-03-21 17:47:11
Tagged date : UTC 2015-03-21 17:47:11
Writing application : Kirara 1.2
Video
ID : 1
Format : AVC
Format/Info : Advanced Video Codec
Format profile : [email protected]
Format settings, CABAC : Yes
Format settings, ReFrames : 5 frames
Codec ID : avc1
Codec ID/Info : Advanced Video Coding
Duration : 23mn 41s
Bit rate : 2 389 Kbps
Width : 1 280 pixels
Height : 720 pixels
Display aspect ratio : 16:9
Frame rate mode : Variable
Frame rate : 26.621 fps
Minimum frame rate : 17.126 fps
Maximum frame rate : 119.880 fps
Color space : YUV
Chroma subsampling : 4:2:0
Bit depth : 8 bits
Scan type : Progressive
Bits/(Pixel*Frame) : 0.097
Stream size : 405 MiB (92%)
Writing library : x264 core 128
Encoding settings : cabac=1 / ref=6 / deblock=1:0:0 / analyse=0x1:0x111 / me=umh / subme=9 / psy=1 / psy_rd=1.00:0.00 / mixed_ref=1 / me_range=32 / chroma_me=1 / trellis=1 / 8x8dct=0 / cqm=0 / deadzone=21,11 / fast_pskip=1 / chroma_qp_offset=-2 / threads=12 / lookahead_threads=2 / sliced_threads=0 / nr=0 / decimate=1 / interlaced=0 / bluray_compat=1 / constrained_intra=0 / bframes=3 / b_pyramid=1 / b_adapt=1 / b_bias=0 / direct=1 / weightb=1 / open_gop=0 / weightp=1 / keyint=250 / keyint_min=1 / scenecut=40 / intra_refresh=0 / rc_lookahead=40 / rc=crf / mbtree=1 / crf=18.0 / qcomp=0.60 / qpmin=0 / qpmax=69 / qpstep=4 / ip_ratio=1.40 / aq=1:1.00
Encoded date : UTC 2015-03-21 17:47:11
Tagged date : UTC 2015-03-21 17:47:11

Audio
ID : 2
Format : AAC
Format/Info : Advanced Audio Codec
Format profile : LC
Codec ID : 40
Duration : 23mn 41s
Bit rate mode : Variable
Bit rate : 208 Kbps
Channel(s) : 2 channels
Channel positions : Front: L R
Sampling rate : 48.0 KHz
Compression mode : Lossy
Stream size : 35.2 MiB (8%)
Encoded date : UTC 2015-03-21 17:47:11
Tagged date : UTC 2015-03-21 17:47:11
General
Complete name : H:\ANIME\Monster Musume no Iru Nichijou [HD][720p]\[Leopard-Raws] Monster Musume no Iru Nichijou - 01 RAW (KBS 1280x720 x264 AAC).mp4
Format : MPEG-4
Format profile : Base Media
Codec ID : isom
File size : 363 MiB
Duration : 23mn 59s
Overall bit rate mode : Variable
Overall bit rate : 2 116 Kbps
Encoded date : UTC 2015-07-07 18:04:34
Tagged date : UTC 2015-07-07 18:04:34
Video
ID : 1
Format : AVC
Format/Info : Advanced Video Codec
Format profile : [email protected]
Format settings, CABAC : Yes
Format settings, ReFrames : 4 frames
Codec ID : avc1
Codec ID/Info : Advanced Video Coding
Duration : 23mn 59s
Bit rate : 1 921 Kbps
Maximum bit rate : 21.4 Mbps
Width : 1 280 pixels
Height : 720 pixels
Display aspect ratio : 16:9
Frame rate mode : Constant
Frame rate : 23.976 fps
Color space : YUV
Chroma subsampling : 4:2:0
Bit depth : 8 bits
Scan type : Progressive
Bits/(Pixel*Frame) : 0.087
Stream size : 330 MiB (91%)
Title : 264:[email protected]
Writing library : x264 core 129 r2245+729M 1a52e03
Encoding settings : cabac=1 / ref=4 / deblock=1:1:-1 / analyse=0x3:0x113 / me=umh / subme=9 / psy=1 / fade_compensate=0.00 / psy_rd=1.00:0.00 / mixed_ref=1 / me_range=24 / chroma_me=1 / trellis=2 / 8x8dct=1 / cqm=0 / deadzone=21,11 / fast_pskip=1 / chroma_qp_offset=-2 / threads=8 / lookahead_threads=1 / sliced_threads=0 / nr=0 / decimate=1 / interlaced=0 / bluray_compat=0 / constrained_intra=0 / fgo=0 / bframes=9 / b_pyramid=2 / b_adapt=2 / b_bias=0 / direct=1 / weightb=1 / open_gop=0 / weightp=2 / keyint=240 / keyint_min=24 / scenecut=40 / intra_refresh=0 / rc=crf / mbtree=0 / crf=18.5 / qcomp=0.72 / qpmin=0 / qpmax=69 / qpstep=4 / ip_ratio=1.40 / pb_ratio=1.30 / aq=1:0.85
Encoded date : UTC 2015-07-07 18:04:34
Tagged date : UTC 2015-07-07 18:04:38
Color primaries : BT.709
Transfer characteristics : BT.709
Matrix coefficients : BT.709
Color range : Limited

Audio
ID : 2
Format : AAC
Format/Info : Advanced Audio Codec
Format profile : LC
Codec ID : 40
Duration : 23mn 59s
Bit rate mode : Variable
Bit rate : 192 Kbps
Maximum bit rate : 229 Kbps
Channel(s) : 2 channels
Channel positions : Front: L R
Sampling rate : 48.0 KHz
Compression mode : Lossy
Stream size : 32.9 MiB (9%)
Language : Japanese
Encoded date : UTC 2015-07-07 16:48:12
Tagged date : UTC 2015-07-07 18:04:38

Создавать темы 17-Июл-2015 16:17

[Профиль]  [ЛС] 

FireHowler ®

Стаж: 4 года 5 месяцев

Сообщений: 270

Симпатии: 153

Исправил, видать оформлять с утра пораньше гиблое дело - голова не соображает)

Создавать темы 17-Июл-2015 16:49

[Профиль]  [ЛС] 

FireHowler ®

Стаж: 4 года 5 месяцев

Сообщений: 270

Симпатии: 153

2 серия.

Создавать темы 03-Авг-2015 06:58

[Профиль]  [ЛС] 

FireHowler ®

Стаж: 4 года 5 месяцев

Сообщений: 270

Симпатии: 153

3 серия.

Создавать темы 07-Авг-2015 11:02

[Профиль]  [ЛС] 

FireHowler ®

Стаж: 4 года 5 месяцев

Сообщений: 270

Симпатии: 153

Релиз обновлен.
Равки остались те же. Изначально озвучки SP была вшита. теперь идет как внешняя
Добавлено до 9 серии и добавлены другие озвучки:
• Трехголосая от Lupin & Reni & Itashi (Anilibria)
• Двухголосая от (муж/жен) Nazel & Freya (Animedia)
• Многоголосая от Рапунцель-тян & Lucifer & Apollo & KRaeved & Joyni (JazzWay Anime)
• Многоголосая от Katsuragi & Dayske & Molly & Myauritsia (AOS)
• Трехголосая от Primary_Alex & Emeri & Shoker (LE-Production)
Следующий апдейт раздачи ожидается не скоро.

Создавать темы 21-Окт-2015 21:04

[Профиль]  [ЛС] 

dominion69

Стаж: 6 лет 5 месяцев

Сообщений: 324

Симпатии: 7

Продолжение будет?

Создавать темы 13-Апр-2016 15:17

[Профиль]  [ЛС] 

Азиз87

Стаж: 4 года 11 месяцев

Сообщений: 752

Симпатии: 143

972140Продолжение будет?
как помниться первоисточник на внешке еще не добил данный релиз с таким набором озвучек, плюс ко всему топик стартер реализует себя как релизера на соседнем трекере, надеюсь и не забует об этом релизе при выходе полного релиза.

Создавать темы 13-Апр-2016 15:46

[Профиль]  [ЛС] 

FireHowler ®

Стаж: 4 года 5 месяцев

Сообщений: 270

Симпатии: 153

dominion69, Этот трекер мною заброшен. Как и заметил Азиз87 я перешел на соседний, и обновил там эту раздачу 2 месяца назад.
Впрочем не я один на этот момент там.

Создавать темы 04-Июн-2016 00:50

[Профиль]  [ЛС] 
Показать сообщения:    
Ответить на тему

Текущее время: 22-Окт 04:00

Часовой пояс: UTC + 5



Вы не можете начинать темы
Вы не можете отвечать на сообщения
Вы не можете редактировать свои сообщения
Вы не можете удалять свои сообщения
Вы не можете голосовать в опросах
Вы не можете прикреплять файлы к сообщениям
Вы не можете скачивать файлы