Последняя девушка / Final Girl (Тайлер Шилдс) [2015, Канада, США, Триллер, боевик, драма, HDRip] (VO : Хихикающий доктор)

Ответить на тему
 

RecobaZico ®

Стаж: 2 года 7 месяцев

Сообщений: 22

Симпатии: 94

Последняя девушка / Final Girl Страна: Канада, США
Жанр: Триллер, боевик, драма
Год выпуска: 2015
Продолжительность: 01:24:12-Перевод: Одноголосый закадровый [Хихикающий доктор]
Cубтитры: нет
Режиссер: Тайлер Шилдс-В ролях: Эбигейл Бреслин, Уэс Бентли, Логан Хаффман, Александр Людвиг, Камерон Брайт, Рис Томпсон, Эмма Паэтц, Грэйсин Шиней, Дезире Зуровски, Франческа Фишер-Иствуд-Описание: В центре событий фильма группа подростков, совершающие убийства девушек ради забавы. К несчастью в качестве жертвы они выбрали совсем не ту девчонку. Вскоре охотники сами оказались в роли добычи.-Рейтинги:
 -Качество видео: HDRip
Формат видео: AVI-Видео: XviD, 920 Кбит/с, 720x306
Аудио: МР3, 2 ch, 192 Кбит/с

MediaInfo

Location: D:\Рекоба2015\Final.Girl.2015.Xixidok.avi
Filename: Final.Girl.2015.Xixidok.avi
File format: .avi (AVI)
File size: 676.18 MB
Duration: 1h 24mn
Navigate by chapters: Nope
Bitrate (all streams): 1 123 Kbps
...with: VirtualDubMod 1.5.10.3 (build 2550/release)
...by using: VirtualDubMod build 2550/release
Title: RARBG.COM - Final.Girl.2015.BRRip.XviD.MP3-RARBG
Stream type: Album
Comments: RARBG.COM - Final.Girl.2015.BRRip.XviD.MP3-RARBG
Stream type: Video
Duration: 01:24:12
Codec: MPEG-4 Visual
Codec Profile: [email protected]
Codec ID: XVID
Video Size: 720 x 306 (2.35:1)
Frame rate: 23.976 fps
Stream size: 555 MiB (82%)
Bitrate: 921 Kbps
Codec library: Lavc56.19.100
Colorspace: YUV
Scantype: Progressive
Bitdepth: 8 bits
Stream type: Audio #1
Duration: 01:24:12.172
Codec: MPEG Audio
Codec Profile: Layer 3
Codec ID: 55
Samplerate: 44.1 KHz
Channels: 2 channels
Bitrate: 192 Kbps
Bitrate/Mode: Constant
Stream size: 116 MiB (17%)
Compression mode: Lossy

Скриншоты






Последний раз редактировалось: RecobaZico (2015-07-13 11:12), всего редактировалось 1 раз

Создавать темы 13-Июл-2015 08:16

[Профиль]  [ЛС] 

mars751

Стаж: 5 лет 8 месяцев

Сообщений: 227

Симпатии: 113

чет рейтинг у него плохой 3,8/10

Создавать темы 13-Июл-2015 10:07

[Профиль]  [ЛС] 

Tralyalya

Стаж: 2 года 9 месяцев

Сообщений: 40

Симпатии: 19

mars751, а тИ не обрашай внимания

Создавать темы 13-Июл-2015 11:20

[Профиль]  [ЛС] 

zhozef

Стаж: 5 лет 11 месяцев

Сообщений: 35

Симпатии: 6

почему написали IMDB 7.1?

Создавать темы 13-Июл-2015 18:16

[Профиль]  [ЛС] 

manutd27

Стаж: 2 года 9 месяцев

Сообщений: 36

Симпатии: 24

943957почему написали IMDB 7.1?
эт скорее оценка нашей аудитории)) постер, девушка....

Создавать темы 14-Июл-2015 19:31

[Профиль]  [ЛС] 

dilshod5254

Стаж: 6 лет 8 месяцев

Сообщений: 106

Симпатии: 14

интересно ограничение нет думаю какая то халтурка раз на такой теме снято

Создавать темы 15-Июл-2015 14:18

[Профиль]  [ЛС] 

Grock

Стаж: 6 лет 10 месяцев

Сообщений: 637

Симпатии: 113

Ммм, Эбигейл Бреслин хорошая актриса. А вот постер у этого фильма ужасен)

Создавать темы 16-Июл-2015 23:35

[Профиль]  [ЛС] 
Показать сообщения:    
Ответить на тему

Текущее время: 17-Дек 11:04

Часовой пояс: UTC + 5



Вы не можете начинать темы
Вы не можете отвечать на сообщения
Вы не можете редактировать свои сообщения
Вы не можете удалять свои сообщения
Вы не можете голосовать в опросах
Вы не можете прикреплять файлы к сообщениям
Вы не можете скачивать файлы