Хуже не бывает,На волоске от смерти.. / World's Worst (1-4 Серии)[Discovery Channel] [2014, HDTVRip]

Ответить на тему
 

Сергей74 ®

Стаж: 2 года 6 месяцев

Сообщений: 211

Симпатии: 293

Хуже не бывает / World's Worst
Название: Хуже не бывает
Оригинальное название: World's Worst
Год выпуска: 2014
Телекомпания: США, Discovery Channel
Жанр: Документальный, Телепередача
Релиз: GeneralFilm
Описание:
Премьера Хуже не бывает, На волоске от смерти — новая серия документальных передач от Дискавери. Передача Хуже не бывает рассказывает захватывающие истории о поведении людей в критических ситуация на грани жизни и смерти.
Как бы вы поступили в опасный момент?
Канал Дискавери собрал лучшие критические моменты и рассказы очевидцев и участников смертельных ситуаций. Они поделятся своими переживаниями и опытом. Здесь и автокатастрофы, и нештатные ситуации на борту самолета, а также опасности, подстерегающие туристов при восхождении в горах. Премьера новой телепередачи на Дискавери состоится 21 июня 2015.
Вы увидите самые опасные и невероятные катастрофы, несущие бедствия и разрушения. Их жертвам приходится собрать в кулак всю свою волю и отчаянно цепляться за жизнь.

Названия серий:
01. На волоске от смерти.
02. Ураганы.
03. Путешествия.
04. Катастрофы
.
Продолжительность: Серия по ~00:44:00
Качество видео: HDTVRip,Avi
Перевод: Одноголосый закадровый, профессиональный
Видео: Xvid, 720x400, ~1540 Кбит/сек
Аудио: AC3, 2 ch, 192 Кбит/cек

MediaInfo

General
Complete name : D:\Хуже не бывает\01. На волоске от смерти..avi
Format : AVI
Format/Info : Audio Video Interleave
File size : 547 MiB
Duration : 43mn 53s
Overall bit rate : 1 742 Kbps
Writing application : VirtualDubMod 1.5.10.3 | www.virtualdub-fr.org || (build 2550/release)
Writing library : VirtualDubMod build 2550/release
Video
ID : 0
Format : MPEG-4 Visual
Format profile : Advanced [email protected]
Format settings, BVOP : 1
Format settings, QPel : No
Format settings, GMC : No warppoints
Format settings, Matrix : Default (H.263)
Codec ID : XVID
Codec ID/Hint : XviD
Duration : 43mn 53s
Bit rate : 1 538 Kbps
Width : 720 pixels
Height : 400 pixels
Display aspect ratio : 16:9
Frame rate : 30.000 fps
Color space : YUV
Chroma subsampling : 4:2:0
Bit depth : 8 bits
Scan type : Progressive
Compression mode : Lossy
Bits/(Pixel*Frame) : 0.178
Stream size : 483 MiB (88%)
Writing library : XviD 1.2.1 (UTC 2008-12-04)
Audio
ID : 1
Format : AC-3
Format/Info : Audio Coding 3
Mode extension : CM (complete main)
Format settings, Endianness : Big
Codec ID : 2000
Duration : 43mn 53s
Bit rate mode : Constant
Bit rate : 192 Kbps
Channel(s) : 2 channels
Channel positions : Front: L R
Sampling rate : 48.0 KHz
Bit depth : 16 bits
Compression mode : Lossy
Stream size : 60.3 MiB (11%)
Alignment : Split accross interleaves
Interleave, duration : 33 ms (1.00 video frame)
Interleave, preload duration : 500 ms

Скриншот c названием фильма

Скриншоты







Создавать темы 13-Июл-2015 11:47

[Профиль]  [ЛС] 

Сергей74 ®

Стаж: 2 года 6 месяцев

Сообщений: 211

Симпатии: 293

От меня могут качать только обладатели "белого" ай пи или те у кого установлен тередо tas-ix.org пользователям,у кого провайдер UzONLINE ,нужно тередо..обладатели тередо,добавляйте меня в Пиры-> мой тередо
[2001:0:b908:d4d8:14c0:20b3:a418:c7f9]:55555
добавляйте в пирах....

Добавляем пир.СМОТРЕТЬ ГИФку

Включаем ТЕРЕДО автоматом.СМОТРЕТЬ ГИФку

Включаем ТЕРЕДО автоматом (БАТНИК) читаем здесь ->>> https://tas-ix.net/viewtopic.php?t=107293

Или включаем ТЕРЕДО РУКАМИ.СМОТРЕТЬ ГИФку


Запускаем CMD (Пуск->CMD)
Копируем и вставляем в cmd Код 1(ниже) ,жмём Enter
1.
netsh interface ipv6 set teredo enterpriseclient teredo.tas-ix.org
Копируем и вставляем в cmd Код 2(ниже) ,жмём Enter
2.
netsh int ipv6 show teredo
Должно стать так:
=== ВСЁ ОК
Но!Если у кого-то стало Тип:disabled

вот так disabled

Проверяем в Windows 7 включено ли тередо,ВКЛЮЧАЕМ ЕГО

1.Кнопка ПУСК ->>> Панель Управления
2.->>>Администрирование
3.->>>Службы
4.->>> Вспомогательная служба IP
P.S Кто не смог найти Администрирование,делаем так
P.S 2 У кого служба не запущена,запускаем ее (скрин украден у TIESTO) двойной клик на службе и в открывшемся окне..
Или рекомендую скачать и установить фикс go.microsoft.com/?linkid=9732129 (1.1 мег) всего или скачать MicrosoftFixit50440 -> https://tas-ix.net/dl.php?id=85912
Подходит для:
Windows 7 Enterprise, Windows 7 Home Basic, Windows 7 Home Premium, Windows 7 Professional, Windows 7 Ultimate, Windows 7 Starter, Windows Server 2008 R2 Datacenter, Windows Server 2008 R2 Enterprise, Windows Server 2008 R2 Standard, Windows Vista Enterprise, Windows Vista Enterprise 64-bit Edition, Windows Vista Home Basic 64-bit Edition, Windows Vista Home Premium 64-bit Edition, Windows Vista Ultimate 64-bit Edition, Windows Vista Business, Windows Vista Business 64-bit Edition, Windows Vista Home Basic, Windows Vista Home Premium, Windows Vista Starter, Windows Vista Ultimate, Windows Server 2008 Datacenter, Windows Server 2008 Enterprise, Windows Server 2008 Standard, Windows Server 2012 R2 Standard, Windows Server 2012 Standard, Windows Server 2012 Datacenter, Windows Server 2012 Essentials, Windows Server 2012 R2 Datacenter, Windows Server 2012 R2 Essentials, Windows Server 2012 R2 for Embedded Systems, Windows Server 2012 R2 Foundation
И опять Запускаем CMD (Пуск->CMD)
Копируем и вставляем в cmd Код 1(ниже) ,жмём Enter
1.
netsh interface ipv6 set teredo enterpriseclient teredo.tas-ix.org
Копируем и вставляем в cmd Код 2(ниже) ,жмём Enter
2.
netsh int ipv6 show teredo
Должно стать так:
=== ВСЁ ОК

Признаки,что ТЕРЕДО работает(в uTorrent)

------------------------------------------===--->>> Ай пи 2001.... (Не всегда есть такие пиры..смотрите на раздачах,где много пиров) ---<<<----------------

-----------------------------------------=====-->> Кнопка Установить IPv6/Teredo неактивна --<<---------

----------------------->У кого uTorrent PRO-<---------------------

-----------------------------------------=в CMD-----------------------------
ipconfig
ОБЯЗАТЕЛЬНО ЗАМЕНИТЕ IP Filter !!! новый фильтр (актуален на 14 августа 2015 ), можете скачать здесь - >>> https://tas-ix.net/viewtopic.php?t=107625

ИНСТРУКЦИЯ&#58; Установка IPФильтра (IPfilter&#41;&#58;

(украдено у Guff) ИНСТРУКЦИЯ: Установка IPФильтра (IPfilter):
Скачайте Ip-Filter (ipfilter.dat) в папку,куда установили uTorrent

или так

Зайдите в меню "Пуск" в "Выполнить" (или нажмите сочетание клавиш Win+R). Там введите %appdata%
Зайдите в папку uTorrent, скопируйте туда файл ipfilter.dat.
Для того, чтобы это заработало, в Опции->Настройки->Дополнительно для параметра ipfilter.enable должно быть проставлено значение true.

В настройках uTorrent

Затем, во вкладке Пиры нажмите "Перезагрузить IPFilter" или "Reload IPFilter" из контекстного меню.

в uTorrent ,во вкладке ПИРЫ

У кого Win 8 и Ошибка&#58; основной сервер teredo недостижим через UDP

Можете почитать Здесь

Создавать темы 13-Июл-2015 14:35

[Профиль]  [ЛС] 
Показать сообщения:    
Ответить на тему

Текущее время: 21-Окт 13:43

Часовой пояс: UTC + 5



Вы не можете начинать темы
Вы не можете отвечать на сообщения
Вы не можете редактировать свои сообщения
Вы не можете удалять свои сообщения
Вы не можете голосовать в опросах
Вы не можете прикреплять файлы к сообщениям
Вы не можете скачивать файлы