Рубаки Некст / Slayers Next (Ватанабэ Такаси) [TV] [26 из 26] [без хардсаба] [RUS(int),JAP+SUB] [1996 г., приключения, комедия, фэнтези, DVDRip]

Ответить на тему
 

FireHowler ®

Стаж: 4 года 5 месяцев

Сообщений: 270

Симпатии: 153

Рубаки Некст / Slayers Next- Год выпуска: 1996
Страна: япония
Жанр: приключения, комедия, фэнтези
Продолжительность: 26 эп. по 22 мин.
Перевод: (многоголосый, закадровый)
Русские субтитры: есть
Режиссер: Ватанабэ Такаси
-
Описание: Лина и ее друзья отвели смертельную опасность от Сейруна, но поиски рукописей Пречистой Библии для Рубак только начинаются. Как далеко зайдет рыжеволосая героиня, чтобы получить доступ к самым сокровенным знаниям Вселенной? На какие жертвы придется пойти ей и ее друзьям? Каких коварных чудовищ им доведется победить? В какие миленькие платьица им придется одеться, и в какие странные игры сыграть? Впрочем, кто говорил, что будет легко? Если собрался узнать древние тайны, то будь готов творить любые безумства!-Качество: DVDRip
Формат: MKV
Видео кодек: WMV9
Аудио кодек: AC3
Видео: WMV9 640x480, 23,98 fps, 1 767 Kbps, 8 bit
Аудио: rus 6ch ac3 384kb 48kHz;jpn 6ch ac3 384kb 48kHz-

Media info

Video
ID : 1
Format : VC-1
Codec ID : V_MS/VFW/FOURCC / WMV3
Codec ID/Info : Windows Media Video 9
Codec ID/Hint : WMV3
Duration : 22mn 35s
Bit rate : 1 767 Kbps
Width : 640 pixels
Height : 480 pixels
Display aspect ratio : 4:3
Frame rate mode : Constant
Frame rate : 23.976 fps
Bit depth : 8 bits
Compression mode : Lossy
Bits/(Pixel*Frame) : 0.240
Stream size : 285 MiB (68%)
Default : Yes
Forced : No
Audio #1
ID : 2
Format : AC-3
Format/Info : Audio Coding 3
Mode extension : CM (complete main)
Format settings, Endianness : Big
Codec ID : A_AC3
Duration : 22mn 35s
Bit rate mode : Constant
Bit rate : 384 Kbps
Channel(s) : 6 channels
Channel positions : Front: L C R, Side: L R, LFE
Sampling rate : 48.0 KHz
Compression mode : Lossy
Stream size : 62.0 MiB (15%)
Title : rus 6ch ac3 384kb 48kHz
Language : Russian
Default : Yes
Forced : No
Audio #2
ID : 3
Format : AC-3
Format/Info : Audio Coding 3
Mode extension : CM (complete main)
Format settings, Endianness : Big
Codec ID : A_AC3
Duration : 22mn 35s
Bit rate mode : Constant
Bit rate : 384 Kbps
Channel(s) : 6 channels
Channel positions : Front: L C R, Side: L R, LFE
Sampling rate : 48.0 KHz
Compression mode : Lossy
Stream size : 62.0 MiB (15%)
Title : jpn 6ch ac3 384kb 48kHz
Language : Japanese
Default : No
Forced : No

Список серий

01. The Sudden Pinch! The Terror of the Monstrous Zoamelgustar!
02. The Roguish Priest! His Name is Xellos!
03. A Wonderful Business! Being a Bodyguard isn`t Easy!
04. An Ancient Pledge! One Who Seeks Immortality!
05. Staying Behind for the Sake of Love!
06. You Can`t Escape! The Return of the Obsessive Martina!
07. Sudden Cooking! Follow the Phantom Dragon!
08. Be Eternal! The Day Prince Phil Died?
09. Hidden Ambitions! The Shocking Confession?
10. All the villains are in Chindu? Regaining magical power!
11. The voice of impending doom! Tear to shreds, Laguna Blade!
12. Donden returns a gift? The unexpected truth!
13. On the verge of falling! The time when ambition collapses!
14. Forbidden dance? Where is the strongest spell?!
15. A Big Crash? The Battle at Artemay Tower!
16. Bitter Curse Balls! Gutsy Fast Balls!
17. The rumored girl is Zelgadis?
18. Temple of sand! The secret of the Giga Slave!
19. Finally detected? Xelloss` true form!
20. We must go! Aim for the Valley of Dragons!
21. Truth of the millennium! The traitorous Chaos-Dragon!
22. The stolen Sword of Light! The final hour of the Chaos-Dragon!
23. Menacing demon swordsmen! Journey of reunions!
24. Trap turned evil! Ghost Town!
25. Spirits of the dead! Lina`s final decision!
26. Go to NEXT! And then...

Скриншоты

Первый сезон

Создавать темы 13-Июл-2015 19:09

[Профиль]  [ЛС] 

Farnerud

Стаж: 6 лет 10 месяцев

Сообщений: 13

...дай скачать

Создавать темы 18-Авг-2015 22:47

[Профиль]  [ЛС] 
Показать сообщения:    
Ответить на тему

Текущее время: 24-Окт 09:11

Часовой пояс: UTC + 5



Вы не можете начинать темы
Вы не можете отвечать на сообщения
Вы не можете редактировать свои сообщения
Вы не можете удалять свои сообщения
Вы не можете голосовать в опросах
Вы не можете прикреплять файлы к сообщениям
Вы не можете скачивать файлы