Палачи по закону (2015) HDTVRip [720p-LQ]

Ответить на тему
 

Сергей74 ®

Стаж: 2 года 5 месяцев

Сообщений: 211

Симпатии: 293

Палачи по закону (2015) HDTVRip [720p-LQ]
Телекомпания: RTД
Жанр: Документальный
Описание:После того как они согласились этим заниматься, их жизнь полностью изменилась. Люди, приводящие в исполнение смертные приговоры, - кто они? И каково это – убивать по приговору суда?
Согласно статистике, США входят в первую пятерку стран по числу проводимых казней наряду с Ираком, Саудовской Аравией, Ираном и Китаем. Но помимо судей, выносящих смертные приговоры, есть и те, кто по долгу службы причастен к их исполнению, как прямо, так и косвенно.
Такие люди держатся в тени, никто из них не афиширует род своих занятий. О том, что они думают о подобной работе, что чувствуют и как живут с осознанием того, что, пусть и на законном основании, но являются убийцами, вы узнаете из фильма «Палачи по закону».

Продолжительность: 00:51:37
Качество видео: HDTVRip
Перевод: Многоголосый закадровый, профессиональный
Видео: Xvid, 1280х720, ~1600 kb/s
Аудио: MP3, 2 ch, 192 kb/s

MediaInfo

General
Complete name : D:\Палачи по закону.avi
Format : AVI
Format/Info : Audio Video Interleave
File size : 643 MiB
Duration : 51mn 37s
Overall bit rate : 1 742 Kbps
Writing application : MEncoder SVN-r33883(20110719-gcc4.5.2)
Writing library : MPlayer
Video
ID : 0
Format : MPEG-4 Visual
Format profile : Advanced [email protected]
Format settings, BVOP : 2
Format settings, QPel : No
Format settings, GMC : No warppoints
Format settings, Matrix : Default (H.263)
Codec ID : XVID
Codec ID/Hint : XviD
Duration : 51mn 37s
Bit rate : 1 537 Kbps
Width : 1 280 pixels
Height : 720 pixels
Display aspect ratio : 16:9
Frame rate : 25.000 fps
Color space : YUV
Chroma subsampling : 4:2:0
Bit depth : 8 bits
Scan type : Progressive
Compression mode : Lossy
Bits/(Pixel*Frame) : 0.067
Stream size : 568 MiB (88%)
Writing library : XviD 1.2.1 (UTC 2008-12-04)
Audio
ID : 1
Format : MPEG Audio
Format version : Version 1
Format profile : Layer 3
Mode : Joint stereo
Mode extension : MS Stereo
Codec ID : 55
Codec ID/Hint : MP3
Duration : 51mn 37s
Bit rate mode : Constant
Bit rate : 192 Kbps
Channel(s) : 2 channels
Sampling rate : 44.1 KHz
Compression mode : Lossy
Delay relative to video : 40ms
Stream size : 70.9 MiB (11%)
Alignment : Aligned on interleaves
Interleave, duration : 26 ms (0.65 video frame)
Interleave, preload duration : 522 ms
Writing library : LAME3.98.4

Скриншоты




Создавать темы 13-Июл-2015 22:07

[Профиль]  [ЛС] 

Сергей74 ®

Стаж: 2 года 5 месяцев

Сообщений: 211

Симпатии: 293

aa


Последний раз редактировалось: Сергей74 (2015-09-14 01:56), всего редактировалось 4 раз(а)

Создавать темы 13-Июл-2015 22:21

[Профиль]  [ЛС] 

abuz85

Стаж: 8 лет 8 месяцев

Сообщений: 109

Симпатии: 80

добавил [2001:0:b908:d4d8:3461:285e:a418:c7f9]:55555, но нету коннекта

Мой тестовый айпи-фильтр

0.0.0.0 - 255.255.255.255
:: - 2001:0:b908:d4d7:ffff:ffff:ffff:ffff
2001:0:b908:d4d9:: - ffff:ffff:ffff:ffff:ffff:ffff:ffff:ffff
-Все, появился коннект)

Создавать темы 13-Июл-2015 22:38

[Профиль]  [ЛС] 

Сергей74 ®

Стаж: 2 года 5 месяцев

Сообщений: 211

Симпатии: 293

943985добавил [2001:0:b908:d4d8:3461:285e:a418:c7f9]:55555, но нету коннекта

Мой тестовый айпи-фильтр

0.0.0.0 - 255.255.255.255
:: - 2001:0:b908:d4d7:ffff:ffff:ffff:ffff
2001:0:b908:d4d9:: - ffff:ffff:ffff:ffff:ffff:ffff:ffff:ffff
-Все, появился коннект)
я обновил трекер вижу Вас..ток что0-то скорость совсем еле капает

Создавать темы 13-Июл-2015 22:49

[Профиль]  [ЛС] 

abuz85

Стаж: 8 лет 8 месяцев

Сообщений: 109

Симпатии: 80

Сергей74, раздача мне не нужна, просто хотел проверить)

Создавать темы 13-Июл-2015 22:52

[Профиль]  [ЛС] 
Показать сообщения:    
Ответить на тему

Текущее время: 25-Сен 05:58

Часовой пояс: UTC + 5



Вы не можете начинать темы
Вы не можете отвечать на сообщения
Вы не можете редактировать свои сообщения
Вы не можете удалять свои сообщения
Вы не можете голосовать в опросах
Вы не можете прикреплять файлы к сообщениям
Вы не можете скачивать файлы