Шестое чувство / Re-Kan! (Кудо Масаси) [TV] [Без хардсаба] [01-13 из 13] [RUS] [2015г., комедия, мистика, школа HDTV-Rip] [720p]

Ответить на тему
 

SoluSoull ®

Стаж: 2 года 7 месяцев

Сообщений: 379

Симпатии: 452

Re-Kan!
Шестое чувство-Производство: Япония
Год выпуска: 2015
Жанр: комедия, мистика, школа
Тип: ТВ (13 эп.), 25 мин.-Перевод:
Озвучка от Jade, Гамлетка Цезаревна & Ancord (anidub)-Режиссёр: Кудо Масаси
Автор оригинала: Сэта Хинако
Студия: Pierrot Plus-Описание: Хибики Амами, темноволосая красавица из старинного рода синтоистских священников, перевелась в новую старшую школу. С такой внешностью и манерами быть бы ей очередной «принцессой», если бы не странные репризы, что регулярно выдает новенькая – то с пустым местом заговорит, то по улице вприсядку пойдет. Хибики даже не таилась перед новыми знакомыми, а сразу честно призналась, что видит духов – происхождение, что ли, влияет?
Ну и что? Школа-то казенная, люди там простые, к своим недостаткам привыкли, и другим многое прощают, был бы человек хороший. Например, местный клоун Ямада сразу влюбился в «принцессу» и готов страдать от ревнивых духов (а что еще остается?) Кана и Кёко привыкли к роли крутых девчонок, им чудачка Хибики по нраву, ибо скучать с ней не приходится. Доброй и наивной Макото вообще все равно – хоть сам Ктулху в школу заявись. Сложней всего пришлось старосте Наруми – слишком правильной девушке, у которой в голове не укладываются духовидческие способности. А что делать, не мы такие – жизнь такая!-Качество: HDTVrip \ Формат: mp4
Тип видео: без хардсаба
Видео: AVC 1280x720, 1776 Kbps, 23.976 fps
Аудио: AAC, 16 bit, 48000Hz, 192 Kbps, 2ch-

Скриншоты


MI

General
Complete name : E:\HDRips\Re-Kan\[AniDub]_Re-Kan_[01]_[720p_x264_Aac]_[Ancord_HC_Jade].mp4
Format : MPEG-4
Format profile : Base Media
Codec ID : isom
File size : 341 MiB
Duration : 24mn 11s
Overall bit rate mode : Variable
Overall bit rate : 1 969 Kbps
Encoded date : UTC 2015-04-05 21:56:59
Tagged date : UTC 2015-04-05 21:56:59
Writing application : Yamb 2.1.0.0 [http://yamb.unite-video.com]
Video
ID : 1
Format : AVC
Format/Info : Advanced Video Codec
Format profile : [email protected]
Format settings, CABAC : Yes
Format settings, ReFrames : 6 frames
Codec ID : avc1
Codec ID/Info : Advanced Video Coding
Duration : 24mn 11s
Bit rate : 1 776 Kbps
Maximum bit rate : 7 954 Kbps
Width : 1 280 pixels
Height : 720 pixels
Display aspect ratio : 16:9
Frame rate mode : Constant
Frame rate : 23.976 fps
Color space : YUV
Chroma subsampling : 4:2:0
Bit depth : 8 bits
Scan type : Progressive
Bits/(Pixel*Frame) : 0.080
Stream size : 307 MiB (90%)
Title : Ì
Writing library : x264 core 120 r2120 0c7dab9
Encoding settings : cabac=1 / ref=6 / deblock=1:1:1 / analyse=0x3:0x113 / me=umh / subme=8 / psy=1 / psy_rd=0.40:0.00 / mixed_ref=1 / me_range=16 / chroma_me=1 / trellis=1 / 8x8dct=1 / cqm=0 / deadzone=21,11 / fast_pskip=1 / chroma_qp_offset=-2 / threads=4 / sliced_threads=0 / nr=0 / decimate=1 / interlaced=0 / bluray_compat=0 / constrained_intra=0 / bframes=3 / b_pyramid=2 / b_adapt=2 / b_bias=0 / direct=3 / weightb=1 / open_gop=0 / weightp=2 / keyint=250 / keyint_min=23 / scenecut=40 / intra_refresh=0 / rc_lookahead=50 / rc=2pass / mbtree=1 / bitrate=1776 / ratetol=1.0 / qcomp=0.60 / qpmin=0 / qpmax=69 / qpstep=4 / cplxblur=20.0 / qblur=0.5 / vbv_maxrate=3552 / vbv_bufsize=8880 / nal_hrd=none / ip_ratio=1.40 / aq=1:0.60
Encoded date : UTC 2015-04-05 21:56:59
Tagged date : UTC 2015-04-05 21:57:02
Audio
ID : 2
Format : AAC
Format/Info : Advanced Audio Codec
Format profile : LC
Codec ID : 40
Duration : 24mn 11s
Bit rate mode : Variable
Bit rate : 192 Kbps
Maximum bit rate : 201 Kbps
Channel(s) : 2 channels
Channel positions : Front: L R
Sampling rate : 48.0 KHz
Compression mode : Lossy
Stream size : 33.2 MiB (10%)
Language : Russian
Encoded date : UTC 2015-04-05 21:57:01
Tagged date : UTC 2015-04-05 21:57:02

Создавать темы 14-Июл-2015 16:41

[Профиль]  [ЛС] 
Показать сообщения:    
Ответить на тему

Текущее время: 20-Окт 15:36

Часовой пояс: UTC + 5



Вы не можете начинать темы
Вы не можете отвечать на сообщения
Вы не можете редактировать свои сообщения
Вы не можете удалять свои сообщения
Вы не можете голосовать в опросах
Вы не можете прикреплять файлы к сообщениям
Вы не можете скачивать файлы