Штамм / The Strain / Сезон: 2 / Серии: 1-13 из 13 (Гильермо дель Торо) [2015, Ужасы, фантастика, драма, WEB-DLRip] (MVO : NewStudio.TV) (Original)

Ответить на тему
 

lector_87 ®

Стаж: 3 года 10 месяцев

Сообщений: 391

Симпатии: 348

-Штамм / The Strain (2 сезон)- Год выпуска: 2015
Страна: США, FX
Жанр: Ужасы, фантастика, драма
Продолжительность: 00:58:28-Перевод: Профессиональный многоголосый закадровый NewStudio.TV
Режиссёр: Гильермо дель Торо-В ролях: Кори Столл / Corey Stoll, Дэвид Брэдли / David Bradley, Миа Маэстро / Mia Maestro, Кевин Дюран / Kevin Durand, Джонатан Хайд / Jonathan Hyde, Ричард Сэммел / Richard Sammel, Джек Кеси / Jack Kesy, Натали Браун / Natalie Brown и др.-Описание: Трансатлантический лайнер из Берлина приземляется в аэропорту Нью-Йорка, однако все, кто был на его борту - мертвы. Доктор Эфраим Гудвезер, руководитель Центра по контролю за эпидемиями, пытается понять причину произошедшего. То, что ему открывается, заставляет стынуть кровь в жилах и холодеть от ужаса.
В это же время бывший профессор, переживший Холокост, Абрам Седракян, уже знает, что происходит. Он знает, что время пришло, и грядет война.
Пассажиры "мёртвого" рейса вдруг оживают. Но это уже не люди. Так в телефильме "Штамм" начинается битва огромных масштабов, когда вирус, превращающий людей в зомби-вампиров, постепенно заражает Нью-Йорк. Доктор Эф, к которому присоединяются Седракян и пёстрая команда истребителей вампиров, теперь должны отыскать способ, который позволит остановить эпидемию и спасти город, пока ещё есть время.
Телефильм "Штамм" (The Strain) снят на основе одноименной трилогии, созданной Гильермо дель Торо в содружестве с писателем Чаком Хоганом.-Доп. информация: Над релизом работали:
Релиз группы NewStudio.TV
Перевод: Александра Цернант
Постер: Vortex
При поддержке:
-Качество: WEB-DLRip
Формат: AVI
Видео кодек: XviD
Аудио кодек: MP3
Видео: XviD, 720x400 (1.80:1), 23.976 fps, ~1400 kbps, ~0.20 bit/pixel
Аудио: Русский многоголосый: MP3, 48 kHz, 2 канала, 128 kbps
Аудио 2: Английский оригинал: MP3, 48 kHz, 2 канала, 128 kbps
Субтитры: отсутствуют

MediaInfo

Формат : AVI
Формат/Информация : Audio Video Interleave
Размер файла : 700 Мбайт
Продолжительность : 58 м.
Общий поток : 1674 Кбит/сек
Программа кодирования : VirtualDubMod 1.5.10.2 (build 2540/release)
Библиотека кодирования : VirtualDubMod build 2540/release
Видео
Идентификатор : 0
Формат : MPEG-4 Visual
Профиль формата : Advanced [email protected]
Параметр BVOP формата : 2
Параметр QPel формата : Нет
Параметр GMC формата : Без точки перехода
Параметр матрицы формата : Default (MPEG)
Идентификатор кодека : XVID
Идентификатор кодека/Подсказка : XviD
Продолжительность : 58 м.
Битрейт : 1404 Кбит/сек
Ширина : 720 пикселей
Высота : 400 пикселей
Соотношение сторон : 16:9
Частота кадров : 23,976 кадра/сек
Цветовое пространство : YUV
Субдискретизация насыщенности : 4:2:0
Битовая глубина : 8 бит
Тип развёртки : Прогрессивная
Метод сжатия : С потерями
Бит/(Пиксели*Кадры) : 0.203
Размер потока : 587 Мбайт (84%)
Библиотека кодирования : XviD 73
Аудио #1
Идентификатор : 1
Формат : MPEG Audio
Версия формата : Version 1
Профиль формата : Layer 3
Режим : Joint stereo
Расширение режима : MS Stereo
Идентификатор кодека : 55
Идентификатор кодека/Подсказка : MP3
Продолжительность : 58 м.
Вид битрейта : Постоянный
Битрейт : 128 Кбит/сек
Каналы : 2 канала
Частота : 48,0 КГц
Метод сжатия : С потерями
Размер потока : 53,5 Мбайт (8%)
Выравнивание : Соединение по промежуткам
Продолжительность промежутка : 42 мс. (1,00 видеокадр)
Время предзагрузки промежутка : 504 мс.
Аудио #2
Идентификатор : 2
Формат : MPEG Audio
Версия формата : Version 1
Профиль формата : Layer 3
Режим : Joint stereo
Расширение режима : MS Stereo
Идентификатор кодека : 55
Идентификатор кодека/Подсказка : MP3
Продолжительность : 58 м.
Вид битрейта : Постоянный
Битрейт : 128 Кбит/сек
Каналы : 2 канала
Частота : 48,0 КГц
Метод сжатия : С потерями
Размер потока : 53,5 Мбайт (8%)
Выравнивание : Соединение по промежуткам
Продолжительность промежутка : 42 мс. (1,00 видеокадр)
Время предзагрузки промежутка : 504 мс.
Библиотека кодирования : LAME3.99r
Настройки программы : -m j -V 4 -q 2 -lowpass 17 -b 128

Скриншоты





Последний раз редактировалось: lector_87 (2015-10-20 21:23), всего редактировалось 16 раз(а)

Создавать темы 15-Июл-2015 01:08

[Профиль]  [ЛС] 

Paladinuz

Стаж: 5 лет 10 месяцев

Сообщений: 137

Симпатии: 85

Ожидаемый фильм.

Создавать темы 15-Июл-2015 01:16

[Профиль]  [ЛС] 

lector_87 ®

Стаж: 3 года 10 месяцев

Сообщений: 391

Симпатии: 348



Последний раз редактировалось: lector_87 (2015-08-20 00:14), всего редактировалось 1 раз

Создавать темы 22-Июл-2015 13:22

[Профиль]  [ЛС] 

lector_87 ®

Стаж: 3 года 10 месяцев

Сообщений: 391

Симпатии: 348



Последний раз редактировалось: lector_87 (2015-08-20 00:15), всего редактировалось 1 раз

Создавать темы 30-Июл-2015 18:26

[Профиль]  [ЛС] 

lector_87 ®

Стаж: 3 года 10 месяцев

Сообщений: 391

Симпатии: 348



Последний раз редактировалось: lector_87 (2015-08-20 00:15), всего редактировалось 1 раз

Создавать темы 04-Авг-2015 12:00

[Профиль]  [ЛС] 

lector_87 ®

Стаж: 3 года 10 месяцев

Сообщений: 391

Симпатии: 348



Последний раз редактировалось: lector_87 (2015-08-20 00:16), всего редактировалось 1 раз

Создавать темы 11-Авг-2015 14:17

[Профиль]  [ЛС] 

gul1979_06

Стаж: 4 года 10 месяцев

Сообщений: 72

Симпатии: 2

lector_87, https://tas-ix.net/viewtopic.php?t=107724 добавь 5 серию сюда тоже

Создавать темы 12-Авг-2015 20:58

[Профиль]  [ЛС] 

lector_87 ®

Стаж: 3 года 10 месяцев

Сообщений: 391

Симпатии: 348



Последний раз редактировалось: lector_87 (2015-08-20 00:16), всего редактировалось 1 раз

Создавать темы 18-Авг-2015 08:28

[Профиль]  [ЛС] 

gul1979_06

Стаж: 4 года 10 месяцев

Сообщений: 72

Симпатии: 2

lector_87, а здесь https://tas-ix.net/viewtopic.php?t=107724

Создавать темы 18-Авг-2015 15:51

[Профиль]  [ЛС] 

lector_87 ®

Стаж: 3 года 10 месяцев

Сообщений: 391

Симпатии: 348

947650lector_87, а здесь https://tas-ix.net/viewtopic.php?t=107724
озвучка от лостов ещё не вышла

Создавать темы 18-Авг-2015 19:23

[Профиль]  [ЛС] 

lector_87 ®

Стаж: 3 года 10 месяцев

Сообщений: 391

Симпатии: 348

Создавать темы 25-Авг-2015 23:04

[Профиль]  [ЛС] 

lector_87 ®

Стаж: 3 года 10 месяцев

Сообщений: 391

Симпатии: 348

8 серия

Создавать темы 02-Сен-2015 03:45

[Профиль]  [ЛС] 
Показать сообщения:    
Ответить на тему

Текущее время: 12-Дек 20:49

Часовой пояс: UTC + 5



Вы не можете начинать темы
Вы не можете отвечать на сообщения
Вы не можете редактировать свои сообщения
Вы не можете удалять свои сообщения
Вы не можете голосовать в опросах
Вы не можете прикреплять файлы к сообщениям
Вы не можете скачивать файлы