Адмирал / Michiel de Ruyter (Роэль Рейн) [2015, Нидерланды, Боевик, Драма, История, HDRip] (DVO : Lucky Strike)

Ответить на тему
 

Сергей74 ®

Стаж: 2 года 8 месяцев

Сообщений: 211

Симпатии: 293

Адмирал / Michiel de Ruyter [2015,HDRip]
Страна: Нидерланды
Жанр: Боевик, Драма, История
Год выпуска: 2015
Продолжительность: 02:31:53
Перевод: Любительский (двухголосый закадровый) Lucky Strike
Cубтитры: нет
Режиссер: Роэль Рейн
В ролях: Франк Ламерс, Барри Атсма, Рёланд Фернхут, Эгберт Ян, Вебер Тиго, Гернандт Дерек де Линт, Хайо Брюинс, Жуль Кройсет
Описание: Михил Рюйтер был одним из самых главных новаторов в боевой технике. Он стал героем голландского флота.
В то время как Голландию, находившуюся на грани гражданской войны, атаковали со всех сторон, лишь один человек пытался бороться за интересы страны — Михаил Рюйтер. Но в глазах власть имущих его успехи делали его слишком популярным, и Рюйтера отправили на смертельно опасное задание…

Доп. информация:
сценарий:Ларс Бом, Алекс ван Гален
продюсер:Клаас де Йонг, Дэвид Клейкенс, Жаклин де Гуй, ...
оператор:Роэль Рейн
композитор:Тревор Моррис
художник:Рубен Шварц, Мартина Фемер, Маржриет Проси
монтаж:Раду Ион
бюджет :€8 000 000
премьера (мир) :26 января 2015, ...
Качество видео: HDRip
Формат видео: MP4
Видео: 1742 Kbps, 24.0 fps, разрешение 720*304 , XVID = XVID Mpeg-4
Аудио: 192 Kbps, 48000 Hz, 2 каналов, 0x2000 = AC-3 ACM Codec, CBR
 

MediaInfo

General
Complete name : D:\Michiel.De Ruyter.avi
Format : AVI
Format/Info : Audio Video Interleave
File size : 2.05 GiB
Duration : 2h 31mn
Overall bit rate : 1 934 Kbps
Movie name : Admiral.2015.L2.HDRip.2100MB.ELEKTRI4KA.uniongang.tv
Director : Carl Gaus
Writing application : VirtualDubMod 1.5.10.3 | www.virtualdub-fr.org || (build 2550/release)
Copyright : UNIONGANG&RUSTORRENTS
Video
ID : 0
Format : MPEG-4 Visual
Format profile : Advanced [email protected]
Format settings, BVOP : 2
Format settings, QPel : No
Format settings, GMC : No warppoints
Format settings, Matrix : Default (MPEG)
Codec ID : XVID
Codec ID/Hint : XviD
Duration : 2h 31mn
Bit rate : 1 733 Kbps
Width : 720 pixels
Height : 304 pixels
Display aspect ratio : 2.35:1
Frame rate : 24.000 fps
Color space : YUV
Chroma subsampling : 4:2:0
Bit depth : 8 bits
Scan type : Progressive
Compression mode : Lossy
Bits/(Pixel*Frame) : 0.330
Stream size : 1.84 GiB (90%)
Writing library : XviD 1.2.1 (UTC 2008-12-04)
Audio
ID : 1
Format : AC-3
Format/Info : Audio Coding 3
Mode extension : CM (complete main)
Format settings, Endianness : Big
Codec ID : 2000
Duration : 2h 31mn
Bit rate mode : Constant
Bit rate : 192 Kbps
Channel(s) : 2 channels
Channel positions : Front: L R
Sampling rate : 48.0 KHz
Bit depth : 16 bits
Compression mode : Lossy
Stream size : 209 MiB (10%)
Alignment : Split accross interleaves
Interleave, duration : 42 ms (1.00 video frame)
Interleave, preload duration : 500 ms

Скриншот c названием фильма

Скриншоты





Последний раз редактировалось: Сергей74 (2015-07-15 11:01), всего редактировалось 1 раз

Создавать темы 15-Июл-2015 10:37

[Профиль]  [ЛС] 

Сергей74 ®

Стаж: 2 года 8 месяцев

Сообщений: 211

Симпатии: 293

aa


Последний раз редактировалось: Сергей74 (2015-09-14 01:56), всего редактировалось 3 раз(а)

Создавать темы 15-Июл-2015 10:51

[Профиль]  [ЛС] 

benny

Стаж: 6 лет 10 месяцев

Сообщений: 11

Симпатии: 1

Раздай нормально, какие еще тередо? Не делай из муха слона. Не хватало еще системные службы изменять из-за какогото фильма)

Создавать темы 15-Июл-2015 11:03

[Профиль]  [ЛС] 

Сергей74 ®

Стаж: 2 года 8 месяцев

Сообщений: 211

Симпатии: 293

944259Раздай нормально, какие еще тередо? Не делай из муха слона. Не хватало еще системные службы изменять из-за какогото фильма)
Не изменяй..Разве кто-то заставляет?А не понимаешь,прочитай про тередо ..зачем-то оно наверное нужно?.


Последний раз редактировалось: Сергей74 (2015-07-15 11:23), всего редактировалось 4 раз(а)

Создавать темы 15-Июл-2015 11:12

[Профиль]  [ЛС] 

bbk

Стаж: 7 лет

Сообщений: 435

Симпатии: 479

944259Раздай нормально, какие еще тередо? Не делай из муха слона. Не хватало еще системные службы изменять из-за какогото фильма)
нормально раздает , а где сам benny в списке ?

Создавать темы 15-Июл-2015 11:17

[Профиль]  [ЛС] 

Топик был перенесен из форума HD-AVC в форум Фильмы за 2015
Grock

Создавать темы 15-Июл-2015 11:20

 

benny

Стаж: 6 лет 10 месяцев

Сообщений: 11

Симпатии: 1

а где сам benny в списке
benny предпочитает только дубляж, любительские одноголосовые, двухголосовые, трехголосовые, миллионголосовые пускай идут в лес)

Создавать темы 15-Июл-2015 13:29

[Профиль]  [ЛС] 
Показать сообщения:    
Ответить на тему

Текущее время: 15-Дек 21:05

Часовой пояс: UTC + 5



Вы не можете начинать темы
Вы не можете отвечать на сообщения
Вы не можете редактировать свои сообщения
Вы не можете удалять свои сообщения
Вы не можете голосовать в опросах
Вы не можете прикреплять файлы к сообщениям
Вы не можете скачивать файлы