Германия 83 / Deutschland 83 / Сезон: 1 / Серии: 1-4 из 8 (Эдвард Бергер) [2015, детектив, криминал, драма, WEB-DLRip] (MVO : Alexfilm) (Original)

Ответить на тему
 

emilsky ®

Стаж: 7 лет 1 месяц

Сообщений: 2237

Симпатии: 610

Германия 83 / Deutschland 83
Год выпуска: 2015
Страна: Германия
Жанр: детектив, криминал, драма
Продолжительность: ~00:47:00
Перевод: Профессиональный многоголосый закадровый Доп. инфо о переводе Alexfilm
Русские субтитры: нет
Режиссёр: Эдвард Бергер
В ролях: Александр Байер, Соня Герхардт, Сильвестр Грот, Йонас Нэй, Ульрих Нётен, Мария Шрадер, Людвиг Трепте, Лиза Томашевски, Годехард Гизе, Уве Пройсс
Описание: Восточная Германия в боевой готовности. Ожидается ввод американского вооружения в Западную Германию. Выходца из ГДР, 24-летнего Мартина Роха, вербуют в агенты штази (управление разведки и контрразведки) и отправляют в ФРГ, где он поступает на военную службу, чтобы передавать информацию о действиях войск НАТО. Парень попадает в новый мир, в котором наряду с тайнами и интригами он сталкивается с невиданными ранее чудесами цивилизации.
Качество: WEB-DLRip
Формат: AVI
Видео кодек: XviD
Аудио кодек: MP3
Видео: 720x400 (1.80:1), 23.976 fps, XviD ~1400kbps avg, 0.19 bit/pixel
Аудио: 48 kHz, MPEG Layer 3, 2 ch, ~128.00 kbps
Аудио 2: 48 kHz, MPEG Layer 3, 2 ch, ~128.00 kbps

MediaInfo

e:\Сериалы\Deutschland 83 - Season 1 (AlexFilm) WEB-DLRip\Deutschland.83.s01e01.WEB-DLRip.Rus.Ger.AlexFilm.avi
General
Complete name : e:\Сериалы\Deutschland 83 - Season 1 (AlexFilm) WEB-DLRip\Deutschland.83.s01e01.WEB-DLRip.Rus.Ger.AlexFilm.avi
Format : AVI
Format/Info : Audio Video Interleave
File size : 563 MiB
Duration : 47mn 16s
Overall bit rate : 1 665 Kbps
Movie name : Deutschland 83 1x01 @ AlexFilm
Writing application : VirtualDubMod 1.5.10.2 (build 2540/release)
Writing library : VirtualDubMod build 2540/release
Video #0
ID : 0
Format : MPEG-4 Visual
Format profile : Advanced [email protected]
Format settings, BVOP : No
Format settings, QPel : No
Format settings, GMC : No warppoints
Format settings, Matrix : Default (H.263)
Codec ID : XVID
Codec ID/Hint : XviD
Duration : 47mn 16s
Bit rate : 1 394 Kbps
Width : 720 pixels
Height : 400 pixels
Display aspect ratio : 16:9
Frame rate : 25.000 fps
Color space : YUV
Chroma subsampling : 4:2:0
Bit depth : 8 bits
Scan type : Progressive
Compression mode : Lossy
Bits/(Pixel*Frame) : 0.194
Stream size : 471 MiB (84%)
Writing library : XviD 73
Audio #1
ID : 1
Format : MPEG Audio
Format version : Version 1
Format profile : Layer 3
Mode : Joint stereo
Mode extension : MS Stereo
Codec ID : 55
Codec ID/Hint : MP3
Duration : 47mn 16s
Bit rate mode : Constant
Bit rate : 128 Kbps
Channel(s) : 2 channels
Sampling rate : 48.0 KHz
Compression mode : Lossy
Stream size : 43.3 MiB (8%)
Alignment : Aligned on interleaves
Interleave, duration : 40 ms (1.00 video frame)
Interleave, preload duration : 504 ms
Title : Russian (AlexFilm)
Writing library : LAME3.99r
Encoding settings : -m j -V 4 -q 3 -lowpass 18 -b 128
Audio #2
ID : 2
Format : MPEG Audio
Format version : Version 1
Format profile : Layer 3
Mode : Joint stereo
Mode extension : MS Stereo
Codec ID : 55
Codec ID/Hint : MP3
Duration : 47mn 16s
Bit rate mode : Constant
Bit rate : 128 Kbps
Channel(s) : 2 channels
Sampling rate : 48.0 KHz
Compression mode : Lossy
Stream size : 43.3 MiB (8%)
Alignment : Aligned on interleaves
Interleave, duration : 40 ms (1.00 video frame)
Interleave, preload duration : 504 ms
Title : Deutsch
Writing library : LAME3.90.3

Скриншоты

будут позже


Последний раз редактировалось: emilsky (2015-07-25 21:21), всего редактировалось 1 раз

Создавать темы 15-Июл-2015 18:41

[Профиль]  [ЛС] 

emilsky ®

Стаж: 7 лет 1 месяц

Сообщений: 2237

Симпатии: 610

обновлено до 4 серии!

Создавать темы 02-Авг-2015 13:18

[Профиль]  [ЛС] 

Чингиз

Стаж: 5 лет 6 месяцев

Сообщений: 37

Симпатии: 20

продолжение есть?

Создавать темы 02-Окт-2015 22:06

[Профиль]  [ЛС] 
Показать сообщения:    
Ответить на тему

Текущее время: 21-Авг 22:56

Часовой пояс: UTC + 5



Вы не можете начинать темы
Вы не можете отвечать на сообщения
Вы не можете редактировать свои сообщения
Вы не можете удалять свои сообщения
Вы не можете голосовать в опросах
Вы не можете прикреплять файлы к сообщениям
Вы не можете скачивать файлы