Бармен (Дина Штурманова) [2015, Комедия, WEB-DLRip]

Ответить на тему
 

mars751 ®

Стаж: 5 лет 7 месяцев

Сообщений: 227

Симпатии: 113

Бармен- -Жанр: Комедия
Год выпуска: 2015
Страна: Россия, Art Pictures Studio, ВайТ Медиа
Перевод: Оригинальное [Лицензия]
Продолжительность: 01:31:57-Режиссёр: Дина Штурманова-В ролях: Виталий Гогунский, Иван Охлобыстин, Юлия Паршута, Юрий Стоянов, Жанна Эппле, Константин Крюков, Антон Богданов, Ольга Бузова, Евгения Ярушникова, Константин Федоров-Описание: Вадик мечтает изменить свою скучную жизнь, но страх неудачи и неуверенность в себе мешают парню двигаться к цели. Все меняется, когда Вадик случайно забредает в пустой бар и выпивает коктейль по рецепту загадочного Бармена. Отныне он — мистер Харизма, и весь мир лежит у его ног. Даже красавица Юля, о которой раньше он не смел и мечтать, обратила на него внимание. Новый коктейль — новый талант: сегодня Вадик — интеллектуал, завтра — король танцпола… Вот только действуют волшебные напитки недолго и имеют не очень приятный побочный эффект- 
-

Дополнительно

год: 2015
страна: Россия
режиссер : Дина Штурманова
сценарий : Денис Каймаков
продюсер: Фёдор Бондарчук, Тимур Вайнштейн, Дмитрий Рудовский, ...
оператор: Олег Топоев, Олег Шуваев
композитор: Павел Есенин
художник: Виктория Первухина, Татьяна Борисова
монтаж: Игорь Отдельнов
жанр: комедия
бюджет: 60 000 000 руб.
сборы в России: $1 464 960 сборы
зрители Россия: 366.4 тыс.
премьера (РФ): 18 июня 2015, «Централ Партнершип»
-Качество видео: WEB-DLRip
Формат видео: AVI
Видео: (XviD),1727 Кбит/с, 720x304
Аудио: AC3,6 ch, 384 Кбит/с

MediaInfo

General
Complete name : D:\1111\тв\Barmen.WEB-DLRip.avi
Format : AVI
Format/Info : Audio Video Interleave
File size : 1.37 GiB
Duration : 1h 31mn
Overall bit rate : 2 129 Kbps
Writing application : VirtualDubMod 1.5.10.3 | www.virtualdub-fr.org || (build 2550/release)
Writing library : VirtualDubMod build 2550/release
Video
ID : 0
Format : MPEG-4 Visual
Format profile : Advanced [email protected]
Format settings, BVOP : 2
Format settings, QPel : No
Format settings, GMC : No warppoints
Format settings, Matrix : Default (MPEG)
Codec ID : XVID
Codec ID/Hint : XviD
Duration : 1h 31mn
Bit rate : 1 736 Kbps
Width : 720 pixels
Height : 304 pixels
Display aspect ratio : 2.35:1
Frame rate : 24.000 fps
Color space : YUV
Chroma subsampling : 4:2:0
Bit depth : 8 bits
Scan type : Progressive
Compression mode : Lossy
Bits/(Pixel*Frame) : 0.330
Stream size : 1.11 GiB (82%)
Writing library : XviD 1.2.1 (UTC 2008-12-04)
Audio
ID : 1
Format : AC-3
Format/Info : Audio Coding 3
Mode extension : CM (complete main)
Format settings, Endianness : Big
Codec ID : 2000
Duration : 1h 31mn
Bit rate mode : Constant
Bit rate : 384 Kbps
Channel(s) : 6 channels
Channel positions : Front: L C R, Side: L R, LFE
Sampling rate : 48.0 KHz
Bit depth : 16 bits
Compression mode : Lossy
Stream size : 253 MiB (18%)
Alignment : Split accross interleaves
Interleave, duration : 42 ms (1.00 video frame)
Interleave, preload duration : 500 ms

Скриншот c названием фильма

Скриншоты




Создавать темы 16-Июл-2015 12:01

[Профиль]  [ЛС] 

mars751 ®

Стаж: 5 лет 7 месяцев

Сообщений: 227

Симпатии: 113

у меня чет инет глючит. так что раздавать позже буду. скорей всего ночью

Создавать темы 16-Июл-2015 12:27

[Профиль]  [ЛС] 

mars751 ®

Стаж: 5 лет 7 месяцев

Сообщений: 227

Симпатии: 113

ц как бесят меня такие люди как grig !!! тут я сидел тратил свое время на создания этого релиза, а он встал на раздачу и еще со скоростью 500! а че нормально ведь готовое оформление-ХАЛЯВА!! ладно, хоть бы я 500Мб раздал бы потом помог мне!

Создавать темы 16-Июл-2015 18:01

[Профиль]  [ЛС] 

Сергей74

Стаж: 2 года 7 месяцев

Сообщений: 211

Симпатии: 293

944428 ц как бесят меня такие люди как grig !!! тут я сидел тратил свое время на создания этого релиза, а он встал на раздачу и еще со скоростью 500! а че нормально ведь готовое оформление-ХАЛЯВА!! ладно, хоть бы я 500Мб раздал бы потом помог мне!
Радоваться надо ..помогает Вам раздавать ...одному тяжко будет 26 ым раздать..и люди довольны,что быстрее скачают zd

Создавать темы 16-Июл-2015 18:33

[Профиль]  [ЛС] 

mars751 ®

Стаж: 5 лет 7 месяцев

Сообщений: 227

Симпатии: 113

Сергей74, да ну его.в следующий раз буду по другому делать.

Создавать темы 16-Июл-2015 18:57

[Профиль]  [ЛС] 

mp1988

Стаж: 6 лет 9 месяцев

Сообщений: 607

Симпатии: 971

mars751, если больше часа небыло бы полного источника отправил бы в тестовый форум, а так скажите спасибо grigu , что он помог с раздачей

Создавать темы 16-Июл-2015 22:18

[Профиль]  [ЛС] 

mars751 ®

Стаж: 5 лет 7 месяцев

Сообщений: 227

Симпатии: 113

944472mars751, если больше часа небыло бы полного источника отправил бы в тестовый форум, а так скажите спасибо grigu , что он помог с раздачей
я ведь написал причину по которой не мог раздавать. в таком случаи вам надо больше половины релизов кинуть в тестовый форум. там по пол года нет полного источника

Создавать темы 16-Июл-2015 22:41

[Профиль]  [ЛС] 

mp1988

Стаж: 6 лет 9 месяцев

Сообщений: 607

Симпатии: 971

mars751, бывает, но зачем тогда оскорблять человека, который помог другим пользователям быстро скачать релиз

Создавать темы 16-Июл-2015 23:00

[Профиль]  [ЛС] 

mars751 ®

Стаж: 5 лет 7 месяцев

Сообщений: 227

Симпатии: 113

944486mars751, бывает, но зачем тогда оскорблять человека, который помог другим пользователям быстро скачать релиз
да малек вспылил)

Создавать темы 17-Июл-2015 08:14

[Профиль]  [ЛС] 

Davron1402

Стаж: 3 года 10 месяцев

Сообщений: 136

Симпатии: 122

mars751, спасибо

Создавать темы 17-Июл-2015 20:01

[Профиль]  [ЛС] 

mars751 ®

Стаж: 5 лет 7 месяцев

Сообщений: 227

Симпатии: 113

944625mars751, спасибо
zd

Создавать темы 17-Июл-2015 21:06

[Профиль]  [ЛС] 

asusus

Стаж: 5 лет 1 месяц

Сообщений: 15

Симпатии: 1

можно раздачи , спасибо за ранее ;-)

Создавать темы 31-Июл-2015 18:36

[Профиль]  [ЛС] 

Motorola

Стаж: 8 лет 10 месяцев

Сообщений: 23

херня и не смешно

Создавать темы 10-Авг-2015 11:18

[Профиль]  [ЛС] 

mars751 ®

Стаж: 5 лет 7 месяцев

Сообщений: 227

Симпатии: 113

946862херня и не смешно
кто и как воспринимает юмор. он бывает разных форм

Создавать темы 13-Сен-2015 20:49

[Профиль]  [ЛС] 

SkoroXod

Стаж: 2 года 2 месяца

Сообщений: 99

Симпатии: 78

Спасибо! Хорошая комедия!

Создавать темы 16-Окт-2015 21:57

[Профиль]  [ЛС] 
Показать сообщения:    
Ответить на тему

Текущее время: 22-Ноя 16:14

Часовой пояс: UTC + 5



Вы не можете начинать темы
Вы не можете отвечать на сообщения
Вы не можете редактировать свои сообщения
Вы не можете удалять свои сообщения
Вы не можете голосовать в опросах
Вы не можете прикреплять файлы к сообщениям
Вы не можете скачивать файлы