Ветреная женщина / Сезон: 1 / Серии: 1-12 из 12 (Ольга Перуновская) [2014, Мелодрама, WEB-DL 720p]

Ответить на тему
 

Сергей74 ®

Стаж: 2 года 6 месяцев

Сообщений: 211

Симпатии: 293

Ветреная женщина.WEB-DL 720p
Год выпуска: 2014
Производство: Россия, Украина, Film.ua, Intr
Жанр: Мелодрама
Продолжительность: 12 х ~ 00:45:00
Субтитры: нет
Озвучка:Оригинал
Режиссёр: Ольга Перуновская
В ролях: Кирилл Жандаров, Валерия Ходос, Ольга Лукьяненко, Алексей Янин, Анатолий Хостикоев, Яна Глущенко, Александр Печерица, Владимир Беляев (III), Тимофей Трибунцев, Виктор Сарайкин, Виталий Салий, Михаил Жонин, Алексей Тритенко, Анатолий Приймак, Алексей Череватенко, Михаил Жигалов
Описание:После головокружительной вечеринки бизнесмен Никита Горелов признается в любви дочери своего шефа Светлане Боголюбовой. Утром, во дворе, Горелов замечает, что незнакомый парень пытается затащить в машину девушку. Между мужчинами завязывается драка.... (В последствии оказалось,что эту девушку проиграли в карты и её везут к выигрывшему (авторитету)...Никита относит потерявшую сознание девушку Лию к себе домой и оставляет на попечение домохозяйки Клавдии Евгеньевны. На фуршете по поводу своего назначения на должность генерального директора Никита дарит Светлане подарок, но просит посмотреть его только дома...
P.S Сериал сейчас идёт по Первому каналу
Качество: WEB-DL 720p
Формат: MKV
Видео кодек: MPEG-4 AVC
Аудио кодек: AC3
Видео: MPEG-4 AVC, ~ 1700 Кбит/с, 1280x720, 25 кадр/с
Аудио: AC3, 2 ch, 192 Кбит/с
 

MI

General
Unique ID : 203549155845986671174799422034381603996 (0x9922243566F6F2E39F96C517BE47849C)
Complete name : D:\Vetrenaya.zhenschina.2014.WEB-DL.(720p).MediaClub\Vetrenaya.zhenschina.(01.seriya.iz.12).2014.WEB-DL.(720p).MediaClub.mkv
Format : Matroska
Format version : Version 2
File size : 526 MiB
Duration : 44mn 26s
Overall bit rate mode : Variable
Overall bit rate : 1 655 Kbps
Movie name : Vetrenaya.zhenschina.(01.seriya.iz.12).2014.WEB-DL.(720p).MediaClub
Encoded date : UTC 2014-07-29 17:25:11
Writing application : mkvmerge v5.8.0 ('No Sleep / Pillow') built on Sep 2 2012 15:37:04
Writing library : libebml v1.2.3 + libmatroska v1.3.0
Video
ID : 1
Format : AVC
Format/Info : Advanced Video Codec
Format profile : [email protected]
Format settings, CABAC : Yes
Format settings, ReFrames : 1 frame
Codec ID : V_MPEG4/ISO/AVC
Duration : 44mn 26s
Bit rate mode : Variable
Bit rate : 1 430 Kbps
Maximum bit rate : 40.0 Mbps
Width : 1 280 pixels
Height : 720 pixels
Display aspect ratio : 16:9
Frame rate mode : Variable
Frame rate : 25.000 fps
Color space : YUV
Chroma subsampling : 4:2:0
Bit depth : 8 bits
Scan type : Progressive
Bits/(Pixel*Frame) : 0.062
Stream size : 454 MiB (86%)
Default : Yes
Forced : Yes
Audio
ID : 2
Format : AC-3
Format/Info : Audio Coding 3
Mode extension : CM (complete main)
Format settings, Endianness : Big
Codec ID : A_AC3
Duration : 44mn 26s
Bit rate mode : Constant
Bit rate : 192 Kbps
Channel(s) : 2 channels
Channel positions : Front: L R
Sampling rate : 48.0 KHz
Bit depth : 16 bits
Compression mode : Lossy
Stream size : 61.0 MiB (12%)
Language : Russian
Default : Yes
Forced : Yes
Скрины,постер,фото залиты в TAS-IX

В ролях(фото)

Кирилл Жандаров

Ольга Лукьяненко

Валерия Ходос

Виктор Сарайкин

Алексей Череватенко

Тимофей Трибунцев

Яна Глущенко

Скриншоты








Последний раз редактировалось: Сергей74 (2015-08-05 23:18), всего редактировалось 2 раз(а)

Создавать темы 16-Июл-2015 14:00

[Профиль]  [ЛС] 

Сергей74 ®

Стаж: 2 года 6 месяцев

Сообщений: 211

Симпатии: 293

aa

Создавать темы 16-Июл-2015 14:57

[Профиль]  [ЛС] 
Показать сообщения:    
Ответить на тему

Текущее время: 23-Окт 07:33

Часовой пояс: UTC + 5



Вы не можете начинать темы
Вы не можете отвечать на сообщения
Вы не можете редактировать свои сообщения
Вы не можете удалять свои сообщения
Вы не можете голосовать в опросах
Вы не можете прикреплять файлы к сообщениям
Вы не можете скачивать файлы