Бармен (Дина Штурманова) [2015, комедия, WEB-DL 720p](Оригинал [Лицензия])

Ответить на тему
 

Сергей74 ®

Стаж: 2 года 7 месяцев

Сообщений: 211

Симпатии: 293

Бармен
Жанр: комедия
Год выпуска: 2015
Продолжительность: 01:40:00
Режиссёр: Дина Штурманова
Озвучка :Оригинал [Лицензия]
В ролях: Виталий Гогунский, Иван Охлобыстин, Юлия Паршута, Юрий Стоянов, Жанна Эппле, Константин Крюков, Антон Богданов, Ольга Бузова, Евгения Ярушникова, Константин Федоров
Описание: Вадик мечтает изменить свою скучную жизнь, но страх неудачи и неуверенность в себе мешают парню двигаться к цели. Все меняется, когда Вадик случайно забредает в пустой бар и выпивает коктейль по рецепту загадочного Бармена. Отныне он - мистер Харизма, и весь мир лежит у его ног. Даже красавица Юля, о которой раньше он не смел и мечтать, обратила на него внимание. Новый коктейль - новый талант: сегодня Вадик - интеллектуал, завтра - король танцпола... Вот только действуют волшебные напитки недолго и имеют не очень приятный побочный эффект...
Доп. информация:
Сценарий: Денис Каймаков
Продюсер: Фёдор Бондарчук, Тимур Вайнштейн, Дмитрий Рудовский
Оператор: Олег Топоев, Олег Шуваев
Композитор: Павел Есенин
Художник: Виктория Первухина, Татьяна Борисова
Монтаж: Игорь ОтдельновБюджет: 60 000 000 руб.
Сборы в России: $1 464 960
Премьера (РФ): 18 июня 2015, «Централ Партнершип»
Зрители: 366.4 тыс.
Возраст: зрителям, достигшим 16 лет
 
Качество видео: WEB-DL 720p
Формат видео: MKV
Видео: MKV, 3990 Kb/s, 1280x532, 24.000 fps
Аудио: AC3, 6 ch, 384 Кбит/с, 48KHz
Скрины,постер залиты в TAS-IX
Другие раздачи на трекере: Бармен (Дина Штурманова) [2015, Комедия, WEB-DLRip] 1,37 GB

MediaInfo

General
Unique ID : 233580225404877033121273164237613522735 (0xAFB9EA40DFB87603AD29C822022F5F2F)
Format : Matroska
Format version : Version 4 / Version 2
File size : 2.87 GiB
Duration : 1h 31mn
Overall bit rate : 4 463 Kbps
Encoded date : UTC 2015-07-15 18:19:37
Writing application : mkvmerge v6.9.1 ('Blue Panther') 64bit built on Apr 18 2014 18:23:38
Writing library : libebml v1.3.0 + libmatroska v1.4.1
Video
ID : 1
Format : AVC
Format/Info : Advanced Video Codec
Format profile : [email protected]
Format settings, CABAC : No
Format settings, ReFrames : 2 frames
Codec ID : V_MPEG4/ISO/AVC
Duration : 1h 31mn
Bit rate : 3 990 Kbps
Width : 1 280 pixels
Height : 532 pixels
Display aspect ratio : 2.40:1
Frame rate mode : Constant
Frame rate : 24.000 fps
Color space : YUV
Chroma subsampling : 4:2:0
Bit depth : 8 bits
Scan type : Progressive
Bits/(Pixel*Frame) : 0.244
Stream size : 2.56 GiB (89%)
Language : English
Default : Yes
Forced : No
Color primaries : BT.709
Transfer characteristics : BT.709
Matrix coefficients : BT.709
Color range : Limited
Audio
ID : 2
Format : AC-3
Format/Info : Audio Coding 3
Mode extension : CM (complete main)
Format settings, Endianness : Big
Codec ID : A_AC3
Duration : 1h 31mn
Bit rate mode : Constant
Bit rate : 384 Kbps
Channel(s) : 6 channels
Channel positions : Front: L C R, Side: L R, LFE
Sampling rate : 48.0 KHz
Bit depth : 16 bits
Compression mode : Lossy
Stream size : 253 MiB (9%)
Language : Russian
Default : Yes
Forced : No
Menu
00:00:00.000 : en:Глава 1
00:04:23.000 : en:Глава 2
00:10:33.000 : en:Глава 3
00:15:18.000 : en:Глава 4
00:21:28.000 : en:Глава 5
00:26:21.000 : en:Глава 6
00:30:32.000 : en:Глава 7
00:35:38.000 : en:Глава 8
00:39:54.000 : en:Глава 9
00:45:20.000 : en:Глава 10
00:51:52.000 : en:Глава 11
00:56:16.000 : en:Глава 12
01:02:50.000 : en:Глава 13
01:07:58.000 : en:Глава 14
01:14:00.000 : en:Глава 15
01:19:05.000 : en:Глава 16
01:25:17.000 : en:Глава 17

Скриншот c названием фильма

Скриншоты







Последний раз редактировалось: Сергей74 (2015-07-16 18:31), всего редактировалось 4 раз(а)

Создавать темы 16-Июл-2015 15:30

[Профиль]  [ЛС] 

Сергей74 ®

Стаж: 2 года 7 месяцев

Сообщений: 211

Симпатии: 293

aa


Последний раз редактировалось: Сергей74 (2015-07-20 00:37), всего редактировалось 1 раз

Создавать темы 16-Июл-2015 17:17

[Профиль]  [ЛС] 

Топик был перенесен из форума Фильмы за 2015 в форум HD-AVC
Каротажник

Создавать темы 16-Июл-2015 18:29

 

Сергей74 ®

Стаж: 2 года 7 месяцев

Сообщений: 211

Симпатии: 293

Каротажник Зачем опять изменять оформление?

Создавать темы 16-Июл-2015 18:45

[Профиль]  [ЛС] 
Показать сообщения:    
Ответить на тему

Текущее время: 22-Ноя 20:01

Часовой пояс: UTC + 5



Вы не можете начинать темы
Вы не можете отвечать на сообщения
Вы не можете редактировать свои сообщения
Вы не можете удалять свои сообщения
Вы не можете голосовать в опросах
Вы не можете прикреплять файлы к сообщениям
Вы не можете скачивать файлы