Толстяк против всех 2 / Paul Blart: Mall Cop 2 (Энди Фикмен / Andy Fickman) [2015, США, фантастика, фэнтези, боевик, приключения, HDRip] (MVO)[Лицензия]

Ответить на тему
 

Сергей74 ®

Стаж: 2 года 5 месяцев

Сообщений: 211

Симпатии: 293

Толстяк против всех 2 / Paul Blart: Mall Cop 2
Страна: США
Жанр: фантастика, фэнтези, боевик, приключения
Год выпуска: 2015
Продолжительность: 01:34:00
Перевод: Профессиональный (многоголосый закадровый) [Лицензия]
Cубтитры: нет
Режиссер: Энди Фикмен / Andy Fickman
В ролях: Кевин Джеймс,Рейни Родригес,Эдуардо Верастеги,Даниэлла Алонсо,Нил МакДонаф,Дэвид Генри,Д.Б. Вудсайд,Николас Туртурро,Лони Лав,Гари Валентайн
Описание: Охранник Пол отправляется в Лас-Вегас, чтобы посетить посвященную охране выставку вместе со своей дочерью Майей, прежде чем она уедет в колледж. На выставке Пол случайно узнает об ограблении и решает задержать преступников…
Доп. информация:
слоган:«Vegas has a new high roller»
режиссер : Энди Фикмен
сценарий : Кевин Джеймс, Ник Бакай
продюсер : Тодд Гарнер, Джек Джиррапуто, Кевин Джеймс, ...
оператор: Дин Семлер
композитор: Руперт Грегсон-Уильямс
художник: Перри Энделин Блейк, Алан Ау, Женевьева Тиррелл, ...
монтаж : Скотт Хилл
бюджет :$30 000 000
сборы в США : $70 607 328
сборы в мире: + $33 100 000 = $103 707 328
премьера (мир): 9 апреля 2015, ...
релиз на DVD: 20 августа 2015, «CP Дистрибуция», ...
рейтинг MPAA: рейтинг PG Рекомендуется присутствие родителей
Качество видео: HDRip
Формат видео: AVI
Видео: XviD, 1822 kb/s, 720x384, 23.976 fps
Аудио: AC3, 384 kb/s, 48KHz, (6 ch)
 

MediaInfo

General
Complete name : D:\Tolstjak.protiv.vseh.2.2015.HDRip.avi
Format : AVI
Format/Info : Audio Video Interleave
File size : 1.45 GiB
Duration : 1h 34mn
Overall bit rate : 2 215 Kbps
Writing application : VirtualDubMod 1.5.10.3 | www.virtualdub-fr.org || (build 2550/release)
Writing library : VirtualDubMod build 2550/release
Video
ID : 0
Format : MPEG-4 Visual
Format profile : Advanced [email protected]
Format settings, BVOP : 2
Format settings, QPel : No
Format settings, GMC : No warppoints
Format settings, Matrix : Default (MPEG)
Codec ID : XVID
Codec ID/Hint : XviD
Duration : 1h 34mn
Bit rate : 1 822 Kbps
Width : 720 pixels
Height : 384 pixels
Display aspect ratio : 1.85:1
Frame rate : 23.976 fps
Color space : YUV
Chroma subsampling : 4:2:0
Bit depth : 8 bits
Scan type : Progressive
Compression mode : Lossy
Bits/(Pixel*Frame) : 0.275
Stream size : 1.20 GiB (82%)
Writing library : XviD 1.2.1 (UTC 2008-12-04)
Audio
ID : 1
Format : AC-3
Format/Info : Audio Coding 3
Mode extension : CM (complete main)
Format settings, Endianness : Big
Codec ID : 2000
Duration : 1h 34mn
Bit rate mode : Constant
Bit rate : 384 Kbps
Channel(s) : 6 channels
Channel positions : Front: L C R, Side: L R, LFE
Sampling rate : 48.0 KHz
Bit depth : 16 bits
Compression mode : Lossy
Stream size : 258 MiB (17%)
Alignment : Split accross interleaves
Interleave, duration : 42 ms (1.00 video frame)
Interleave, preload duration : 500 ms
Скрины,постер залиты в TAS-IX

Скриншот c названием фильма

Скриншоты



Создавать темы 17-Июл-2015 05:40

[Профиль]  [ЛС] 

Сергей74 ®

Стаж: 2 года 5 месяцев

Сообщений: 211

Симпатии: 293

aa


Последний раз редактировалось: Сергей74 (2015-09-14 01:55), всего редактировалось 3 раз(а)

Создавать темы 17-Июл-2015 06:16

[Профиль]  [ЛС] 

trololo

Стаж: 4 года 6 месяцев

Сообщений: 62

Симпатии: 58

Постоянно такая проблема с тобой)

Создавать темы 17-Июл-2015 08:28

[Профиль]  [ЛС] 

-OdilmaX-

Стаж: 2 года 6 месяцев

Сообщений: 425

Симпатии: 854

944549Постоянно такая проблема с тобой)
это не проблема,автор помогает и напоминает, тередо,фильтры и прочие настройки (что-бы вы не искали он добавил сюда в релиз)
это на ваше благо,для стабильной максимальной загрузки релиза (и автор макс, раздал).
Потом автору не надо выслушивать следующие комменты как: где раздача,где скорость,скорость мала, и т.п,

Создавать темы 17-Июл-2015 18:28

[Профиль]  [ЛС] 

axeman

Стаж: 4 года 10 месяцев

Сообщений: 380

Симпатии: 50

А я ниче не настраивал, качаю так правда скорость колебится и все +терпение

Создавать темы 17-Июл-2015 18:43

[Профиль]  [ЛС] 
Показать сообщения:    
Ответить на тему

Текущее время: 20-Сен 03:37

Часовой пояс: UTC + 5



Вы не можете начинать темы
Вы не можете отвечать на сообщения
Вы не можете редактировать свои сообщения
Вы не можете удалять свои сообщения
Вы не можете голосовать в опросах
Вы не можете прикреплять файлы к сообщениям
Вы не можете скачивать файлы