Дивергент, глава 2: Инсургент | Insurgent (Роберт Швентке | Robert Schwentke) [2015 г., фантастика, триллер, приключения, HDTVRip][Чистый звук]

Ответить на тему
 

DXgame ®

Стаж: 5 лет 1 месяц

Сообщений: 128

Симпатии: 144

Дивергент, глава 2: Инсургент«В этом мире пора что-то менять»- Год выпуска: 2015
Страна: США / Red Wagon Entertainment, Mandeville Films, Summit Entertainment
Жанр: фантастика, триллер, приключения
Продолжительность: 01:58:59
Перевод: Дублированный [Чистый звук] Официальный
-Режиссер: Роберт Швентке-В ролях: Шейлин Вудли, Тео Джеймс, Кейт Уинслет, Джай Кортни, Энсел Элгорт, Майлз Теллер, Зои Кравиц, Мекхай Файфер, Наоми Уоттс, Октавия Спенсер-Описание:
В новой главе антиутопии об обществе, где все расставлено по полочкам, а любая индивидуальность подлежит искоренению, Трис должна найти способ борьбы со страшной системой, уничтожающей ее близких. Кто из них на очереди? Она узнает все больше страшных подробностей, стоящих за кажущимся порядком, и уже не может не видеть, что в ее мире пора что-то менять. Но главное в этой борьбе - справиться с расколом, который враг порождает в ее собственной душе.
-Дополнительная информация:
  • Сценарий: Брайан Даффилд, Акива Голдсман, Марк Бомбэк
  • Продюсер: Люси Фишер, Пуйа Шахбазян, Дуглас Уик
  • Оператор: Флориан Баллхаус
  • Композитор: Джозеф Трапанезе
  • Художник: Алек Хэммонд, Алан Хук, Джей Пелиссье
  • Монтаж: Стюарт Леви, Нэнси Ричардсон
-
  • Бюджет: $110 000 000
-
  • Сборы в США: $130 140 276
  • Сборы в мире: + $165 059 129 = $295 199 405
  • Сборы в России: $9 749 740
-
  • Премьера (мир): 11 марта 2015
  • Премьера (РФ): 19 марта 2015, «Централ Партнершип»
-
  • Возраст: зрителям, достигшим 12 лет
  • Рейтинг MPAA: детям до 13 лет просмотр не желателен
-Качество: HDTVRip
Формат: AVI
Видео кодек: XviD
Аудио кодек: AC3
Видео данные: XviD, 1935 kb/s, 720x400, 23.976 fps
Аудио данные: AC3, 256 kb/s, 48KHz, (2 ch)
-

MediaInfo

General
    Complete name : E:\1HCuPgeHt.2015.D.HDTVRip.2100Mb.[TAS-IX.NET].avi
    Format : AVI
    Format/Info : Audio Video Interleave
    Format profile : OpenDML
    File size : 2.05 GiB
    Duration : 1h 59mn
    Overall bit rate : 2 465 Kbps
    Writing application : VirtualDubMod 1.5.10.2 (build 2540/release)
    Writing library : VirtualDubMod build 2540/release
  Video #0
    ID : 0
    Format : MPEG-4 Visual
    Format profile : Advanced [email protected]
    Format settings, BVOP : 2
    Format settings, QPel : No
    Format settings, GMC : No warppoints
    Format settings, Matrix : Default (MPEG)
    Codec ID : XVID
    Codec ID/Hint : XviD
    Duration : 1h 59mn
    Bit rate : 1 935 Kbps
    Width : 720 pixels
    Height : 400 pixels
    Display aspect ratio : 16:9
    Frame rate : 23.976 fps
    Color space : YUV
    Chroma subsampling : 4:2:0
    Bit depth : 8 bits
    Scan type : Progressive
    Compression mode : Lossy
    Bits/(Pixel*Frame) : 0.280
    Stream size : 1.61 GiB (78%)
    Writing library : XviD 1.2.1 (UTC 2008-12-04)
  Audio #1
    ID : 1
    Format : AC-3
    Format/Info : Audio Coding 3
    Mode extension : CM (complete main)
    Format settings, Endianness : Big
    Codec ID : 2000
    Duration : 1h 59mn
    Bit rate mode : Constant
    Bit rate : 256 Kbps
    Channel(s) : 2 channels
    Channel positions : Front: L R
    Sampling rate : 48.0 KHz
    Bit depth : 16 bits
    Compression mode : Lossy
    Stream size : 218 MiB (10%)
    Alignment : Split accross interleaves
    Interleave, duration : 42 ms (1.00 video frame)
    Interleave, preload duration : 500 ms
  Audio #2
    ID : 2
    Format : AC-3
    Format/Info : Audio Coding 3
    Mode extension : CM (complete main)
    Format settings, Endianness : Big
    Codec ID : 2000
    Duration : 1h 59mn
    Bit rate mode : Constant
    Bit rate : 256 Kbps
    Channel(s) : 2 channels
    Channel positions : Front: L R
    Sampling rate : 48.0 KHz
    Bit depth : 16 bits
    Compression mode : Lossy
    Stream size : 218 MiB (10%)
    Alignment : Split accross interleaves
    Interleave, duration : 42 ms (1.00 video frame)
    Interleave, preload duration : 500 ms

Скриншоты

Создавать темы 17-Июл-2015 15:10

[Профиль]  [ЛС] 

Tricks

Стаж: 5 лет

Сообщений: 602

Симпатии: 21

ну и как фильм отпишитесь?

Создавать темы 17-Июл-2015 16:22

[Профиль]  [ЛС] 

Lolochka

Стаж: 5 лет 7 месяцев

Сообщений: 29

Симпатии: 9

Tricks, Фильм просто замечательный

Создавать темы 17-Июл-2015 20:06

[Профиль]  [ЛС] 

[email protected]

Стаж: 5 лет 5 месяцев

Сообщений: 10

Симпатии: 3

скорость очень плохой))

Создавать темы 17-Июл-2015 20:50

[Профиль]  [ЛС] 

Sasuke Uchiha

Стаж: 2 года 8 месяцев

Сообщений: 9

Симпатии: 4

Как по мне первая часть был лучше

Создавать темы 17-Июл-2015 21:26

[Профиль]  [ЛС] 

ustas

Стаж: 8 лет 10 месяцев

Сообщений: 53

Симпатии: 17

944636Как по мне первая часть был лучше
то бишь, хуже чем первая, не особо блещущая, часть?

Создавать темы 17-Июл-2015 21:32

[Профиль]  [ЛС] 

4niko

Стаж: 7 лет

Сообщений: 78

Симпатии: 11

Что за мода красивых девушек стричь.
Демми Мур, Биг бэнг, теперь тут, кто следующий ???
А если по делу то в 'Дополнительная информация:' лично я бы хотел видеть даты выхода на DVD и блюрей, а не премьеру в кинотеатрах... Так как cam_ы не смотрю.

Создавать темы 18-Июл-2015 01:06

[Профиль]  [ЛС] 

Luke

Стаж: 6 лет 10 месяцев

Сообщений: 31

Ох как хорошо, когда есть Саркоровский сидер на раздаче! Сидишь такой, качаешь на скорости 10 мб.с te

Создавать темы 18-Июл-2015 02:08

[Профиль]  [ЛС] 

Sasuke Uchiha

Стаж: 2 года 8 месяцев

Сообщений: 9

Симпатии: 4

944639
944636Как по мне первая часть был лучше
то бишь, хуже чем первая, не особо блещущая, часть?
Ага,можно посмотреть только из интереса чем там все кончиться.Но автору спасибо.

Создавать темы 18-Июл-2015 08:12

[Профиль]  [ЛС] 

Антитеррор

Стаж: 4 года 6 месяцев

Сообщений: 19

Симпатии: 4

странно, на внешке фильм хвалят, говорят что даже лучше чем первая часть, хотя по мне первая часть не очень была

Создавать темы 18-Июл-2015 09:24

[Профиль]  [ЛС] 

Sasuke Uchiha

Стаж: 2 года 8 месяцев

Сообщений: 9

Симпатии: 4

944672странно, на внешке фильм хвалят, говорят что даже лучше чем первая часть, хотя по мне первая часть не очень была
Сколько людей-столько вкусов.То что 1я часть была лучше это лично мое мнение.

Создавать темы 19-Июл-2015 09:21

[Профиль]  [ЛС] 
Показать сообщения:    
Ответить на тему

Текущее время: 19-Ноя 15:41

Часовой пояс: UTC + 5



Вы не можете начинать темы
Вы не можете отвечать на сообщения
Вы не можете редактировать свои сообщения
Вы не можете удалять свои сообщения
Вы не можете голосовать в опросах
Вы не можете прикреплять файлы к сообщениям
Вы не можете скачивать файлы