Алхимическое оружие / Busou Renkin (Като Такао) [TV] [Без хардсаба] [01-26 из 26] [RUS(ext),JAP+SUB] [2006г., приключения, комедия, фэнтези, сёнэн DVDRip]

Ответить на тему
 

SoluSoull ®

Стаж: 2 года 7 месяцев

Сообщений: 379

Симпатии: 452

Busou Renkin
Алхимическое оружие-Производство: Япония
Год выпуска: 2006
Жанр: приключения, комедия, фэнтези, сёнэн
Тип: ТВ (26 эп.), 25 мин.-Перевод:
Озвучка от Persona99
Субтитры от Pipicus-Режиссёр: Като Такао
Автор оригинала: Вацуки Нобухиро
Студия: XEBEC-Описание: Старшеклассник Муто Кадзуки видит сон про то, как он погибает в схватке с монстром, защищая загадочную незнакомку. Вскоре сон начинает сбываться: на него и его сестру нападает монстр, похожий на огромную змею. Цумура Токико, девочка из его сна, рассказывает ему, что этот монстр называется гомункул. Монстр нападает на Кадзуки, пытающегося спасти Токико, и убивает его, но девочка воскрешает Кадзуки с помощью какугана.Токико объясняет ему, что какуган – это алхимическое устройство, способное даровать силу для борьбы с гомункулами. С помощью какугана Кадзуки создаёт себе алхимическое оружие в виде огромного копья. Вместе с Токико и её алхимическим оружием Кадзуки сражается с гомункулами и их повелителем.-Качество: DVDRip \ Формат: MKV
Тип видео: без хардсаба
Видео: WVC1 / 1501 Kbps / 23.976 fps / 704x480
Аудио RUS: Dolby AC3 48000Hz / 160Kbps / Stereo
Аудио JAP: Dolby AC3 48000Hz / 192Kbps / Stereo-

Скриншоты


MI

General
Unique ID : 201898507382636884513709947546048275415 (0x97E43CF4BF078EF38AAD4F9E374223D7)
Complete name : S:\Busou Renkin\[01] - A New Life.mkv
Format : Matroska
Format version : Version 1
File size : 316 MiB
Duration : 24mn 57s
Overall bit rate : 1 772 Kbps
Encoded date : UTC 2008-08-31 14:36:21
Writing application : mkvmerge v2.2.0 ('Turn It On Again') built on Mar 4 2008 12:58:26
Writing library : libebml v0.7.7 + libmatroska v0.8.1
Video
ID : 1
Format : VC-1
Format profile : [email protected]
Codec ID : V_MS/VFW/FOURCC / WVC1
Codec ID/Hint : Microsoft
Duration : 24mn 57s
Bit rate : 1 544 Kbps
Width : 704 pixels
Height : 480 pixels
Display aspect ratio : 16:9
Original display aspect rat : 3:2
Frame rate mode : Constant
Frame rate : 23.976 fps
Standard : NTSC
Color space : YUV
Chroma subsampling : 4:2:0
Bit depth : 8 bits
Scan type : Progressive
Compression mode : Lossy
Bits/(Pixel*Frame) : 0.191
Stream size : 276 MiB (87%)
Language : English
Default : Yes
Forced : No
Audio
ID : 2
Format : AC-3
Format/Info : Audio Coding 3
Mode extension : CM (complete main)
Format settings, Endianness : Big
Codec ID : A_AC3
Duration : 24mn 57s
Bit rate mode : Constant
Bit rate : 192 Kbps
Channel(s) : 2 channels
Channel positions : Front: L R
Sampling rate : 48.0 KHz
Bit depth : 16 bits
Compression mode : Lossy
Stream size : 34.3 MiB (11%)
Language : Japanese
Default : Yes
Forced : No


Последний раз редактировалось: SoluSoull (2015-07-18 12:08), всего редактировалось 1 раз

Создавать темы 17-Июл-2015 18:04

[Профиль]  [ЛС] 

SoluSoull ®

Стаж: 2 года 7 месяцев

Сообщений: 379

Симпатии: 452

сорри, озвучку скачал криво, перекачаю и добавлю на этих выходных

Создавать темы 17-Июл-2015 18:05

[Профиль]  [ЛС] 

daniellya

Стаж: 5 лет 6 месяцев

Сообщений: 338

Симпатии: 29

4 года это аниме добить не могу, хотя на появление Бабочки чуть не умер со смеху

Создавать темы 17-Июл-2015 19:39

[Профиль]  [ЛС] 

SoluSoull ®

Стаж: 2 года 7 месяцев

Сообщений: 379

Симпатии: 452

добавил рус озвучку

Создавать темы 18-Июл-2015 12:08

[Профиль]  [ЛС] 

SoluSoull ®

Стаж: 2 года 7 месяцев

Сообщений: 379

Симпатии: 452

никого невижу в пирах

Создавать темы 23-Июл-2015 21:26

[Профиль]  [ЛС] 
Показать сообщения:    
Ответить на тему

Текущее время: 22-Окт 18:49

Часовой пояс: UTC + 5



Вы не можете начинать темы
Вы не можете отвечать на сообщения
Вы не можете редактировать свои сообщения
Вы не можете удалять свои сообщения
Вы не можете голосовать в опросах
Вы не можете прикреплять файлы к сообщениям
Вы не можете скачивать файлы