Мунто / Munto (Кигами Ёсидзи) [TV+OVA+MOVIE] [Без хардсаба] [01-9+2+1 из 9+2+2] [RUS(ext),JAP+SUB] [2003-2009г., фэнтези, романтика, драма DVDRip]

Ответить на тему
 

SoluSoull ®

Стаж: 2 года 7 месяцев

Сообщений: 379

Симпатии: 452

-Munto - короткий OVA-сериал, состоящий из двух серий по 45 минут, созданных в 2003 и в 2005 году. По сюжету OVA в 2009 году был выпущен короткий аниме-сериал из 9 серий, который транслировался по каналу Chiba TV, так же полнометражный фильм который является компилацией TV сериала

Мунто OVA-1 - OVA (1 эп.), начало цикла, 2003

Munto
Мунто-Производство: Япония
Год выпуска: 2003
Жанр: фэнтези, романтика
Тип: OVA (1 эп.), 50 мин.-Перевод:
Озвучка Любительский (одноголосый)
Субтитры полные-Режиссёр: Кигами Ёсидзи
Автор оригинала: Кигами Ёсидзи
Студия: Kyoto Animation-Описание: Магический мир плавает в небесах, опираясь на мистические колонны. Воздушность и прочность миру сообщает некоторый элемент «акуто». Правит миром король-маг Мунто. Мунто молод и почти всемогущ. Запасы «акуто» иссякают. Колонны рушатся...
В нашем мире живет девочка Юмэри. Она видит острова среди облаков и как-то связана с возможностью «акуто» самовосстанавливаться. Но Юмэри не любит смотреть вверх. Ей давно объяснили, что никаких островов в облаках нет…-Качество: DVDRip \ Формат: MKV
Тип видео: без хардсаба
Видео: H.264, 640x480, ~1550 kBit/s, 29.970 fps
Аудио RUS: MPEG Layer 3 2ch, 128 kb/s, 48 kHz
Аудио JAP: AC3 2ch, 192 kb/s, 48 kHz

MI

General
Unique ID : 193209380560261261495128968777931679009 (0x915AC5ED890BF299B74879F9DC37E521)
Complete name : E:\HDRips\Munto\OVA - 1\Munto OVA 01 [DVDRip 640x480 H264 AC3 2ch].mkv
Format : Matroska
Format version : Version 1
File size : 624 MiB
Duration : 54mn 19s
Overall bit rate : 1 607 Kbps
Encoded date : UTC 2009-01-03 14:17:41
Writing application : mkvmerge v2.4.0 ('Fumbling Towards Ecstasy') built on Oct 11 2008 20:13:15
Writing library : libebml v0.7.7 + libmatroska v0.8.1
Video
ID : 1
Format : AVC
Format/Info : Advanced Video Codec
Format profile : [email protected]
Format settings, CABAC : Yes
Format settings, ReFrames : 8 frames
Codec ID : V_MPEG4/ISO/AVC
Bit rate : 1 383 Kbps
Nominal bit rate : 1 550 Kbps
Width : 640 pixels
Height : 480 pixels
Display aspect ratio : 4:3
Frame rate mode : Variable
Original frame rate : 29.970 fps
Color space : YUV
Chroma subsampling : 4:2:0
Bit depth : 8 bits
Scan type : Progressive
Bits/(Pixel*Frame) : 0.168
Writing library : x264 core 45 svn-502
Encoding settings : cabac=1 / ref=5 / deblock=1:-1:-1 / analyse=0x3:0x133 / me=umh / subme=6 / brdo=1 / mixed_ref=1 / me_range=16 / chroma_me=1 / trellis=1 / 8x8dct=1 / cqm=0 / chroma_qp_offset=0 / slices=1 / nr=0 / bframes=2 / b_pyramid=1 / b_adapt=1 / b_bias=0 / direct=1 / wpredb=1 / bime=1 / keyint=250 / keyint_min=25 / scenecut=40 / rc=2pass / bitrate=1550 / ratetol=1.0 / rceq='blurCplx^(1-qComp)' / qcomp=0.60 / qpmin=10 / qpmax=51 / qpstep=4 / cplxblur=20.0 / qblur=0.5 / ip_ratio=1.40 / pb_ratio=1.30
Default : Yes
Forced : No
Audio
ID : 2
Format : AC-3
Format/Info : Audio Coding 3
Mode extension : CM (complete main)
Format settings, Endianness : Big
Codec ID : A_AC3
Duration : 54mn 19s
Bit rate mode : Constant
Bit rate : 192 Kbps
Channel(s) : 2 channels
Channel positions : Front: L R
Sampling rate : 48.0 KHz
Bit depth : 16 bits
Compression mode : Lossy
Stream size : 74.6 MiB (12%)
Language : Japanese
Default : Yes
Forced : No

Мунто OVA-2 - OVA (1 эп.), продолжение, 2005

Munto II: Toki no Kabe wo Koete
Мунто-Производство: Япония
Год выпуска: 2005
Жанр: приключения, фэнтези, фантастика
Тип: OVA (1 эп.), 66 мин.-Перевод:
Озвучка Любительский (одноголосый)
Субтитры полные-Режиссёр: Кигами Ёсидзи
Автор оригинала: Кигами Ёсидзи
Студия: Kyoto Animation-Описание: Сила, которую Небесный Король получил от Юмеми, породила страх в
жителях Небес, отняла их мудрость. Чтобы получить контроль над этой
силой, опять необходима помощь девушки Земли. Юмеми предстоит
снова встретиться с Мунто...-Качество: DVDRip \ Формат: MKV
Тип видео: без хардсаба
Видео: H.264, 640x480, ~1496 kBit/s, 29.970 fps
Аудио RUS: MPEG Layer 3 2ch, 128 kb/s, 48 kHz
Аудио JAP: AC3 2ch, 192 kb/s, 48 kHz

MI

General
Unique ID : 207958051085181154868588102063304088923 (0x9C734386D535F82291DC8924073A1D5B)
Complete name : E:\HDRips\Munto\OVA - 2\Munto OVA 02 [DVDRip 640x480 H264 AC3 2ch].mkv
Format : Matroska
Format version : Version 1
File size : 616 MiB
Duration : 1h 0mn
Overall bit rate : 1 427 Kbps
Encoded date : UTC 2009-01-03 14:24:33
Writing application : mkvmerge v2.4.0 ('Fumbling Towards Ecstasy') built on Oct 11 2008 20:13:15
Writing library : libebml v0.7.7 + libmatroska v0.8.1
Video
ID : 1
Format : AVC
Format/Info : Advanced Video Codec
Format profile : [email protected]
Format settings, CABAC : Yes
Format settings, ReFrames : 8 frames
Codec ID : V_MPEG4/ISO/AVC
Bit rate : 1 207 Kbps
Nominal bit rate : 1 496 Kbps
Width : 640 pixels
Height : 480 pixels
Display aspect ratio : 4:3
Frame rate mode : Variable
Original frame rate : 29.970 fps
Color space : YUV
Chroma subsampling : 4:2:0
Bit depth : 8 bits
Scan type : Progressive
Bits/(Pixel*Frame) : 0.162
Writing library : x264 core 45 svn-502
Encoding settings : cabac=1 / ref=5 / deblock=1:-1:-1 / analyse=0x3:0x133 / me=umh / subme=6 / brdo=1 / mixed_ref=1 / me_range=16 / chroma_me=1 / trellis=1 / 8x8dct=1 / cqm=0 / chroma_qp_offset=0 / slices=1 / nr=0 / bframes=2 / b_pyramid=1 / b_adapt=1 / b_bias=0 / direct=1 / wpredb=1 / bime=1 / keyint=250 / keyint_min=25 / scenecut=40 / rc=2pass / bitrate=1496 / ratetol=1.0 / rceq='blurCplx^(1-qComp)' / qcomp=0.60 / qpmin=10 / qpmax=51 / qpstep=4 / cplxblur=20.0 / qblur=0.5 / ip_ratio=1.40 / pb_ratio=1.30
Default : Yes
Forced : No
Audio
ID : 2
Format : AC-3
Format/Info : Audio Coding 3
Mode extension : CM (complete main)
Format settings, Endianness : Big
Codec ID : A_AC3
Duration : 1h 0mn
Bit rate mode : Constant
Bit rate : 192 Kbps
Channel(s) : 2 channels
Channel positions : Front: L R
Sampling rate : 48.0 KHz
Bit depth : 16 bits
Compression mode : Lossy
Stream size : 82.8 MiB (13%)
Language : Japanese
Default : Yes
Forced : No

Мунто [ТВ] - ТВ (9 эп.), ремейк, 2009

Sora o Miageru Shoujo no Hitomi ni Utsuru Sekai
Мир, отраженный в глазах девушки, смотрящей на небо-Производство: Япония
Год выпуска: 2009
Жанр: фэнтези, романтика, драма
Тип: ТВ (9 эп.), 25 мин.-Перевод:
Озвучка от jept
Субтитры от Sora P3 Heaven & Stan Warhammer-Режиссёр: Кигами Ёсидзи
Автор оригинала: Кигами Ёсидзи
Студия: Kyoto Animation-Описание: Давным-давно ужасная война расколола Землю и Небеса и навеки разделила два мира. Жители Земли с их короткой жизнью стали вспоминать Небеса лишь в мифах и легендах, а бессмертные небожители попросту не обращали внимания на Нижний мир – ведь там не было Акуто, магической энергии, дающей им силу и долголетие. И тут случилась беда – Акуто стала стремительно истощаться, а вспыхнувшие войны только ускорили кризис. Пока эльфоподобные жители Верхнего мира дрались за остатки магической силы, Мунто, самый могучий из Небесных владык, узнал от провидицы Руэри, что ключ к спасению обоих миров нужно искать на Земле...
13-летняя Юмэми Хидака любила дождливые дни – ведь тогда она видела небо так же, как остальные люди, без величественных островов, плавающих в голубой вышине. Но последние время видения стали тревожными и пугающими, с огромными скалами и каменными колоннами, рушащимися с небес. Юмэми поняла, отчего родную Японию стали терзать цунами, землетрясения и иные катаклизмы, но этими мыслями боялась делиться даже с лучшими подругами Итико и Судзумэ, до тех пор, когда в огненном сиянии перед ней не появился незнакомец в красном…-Качество: DVDRip \ Формат: mp4
Тип видео: без хардсаба
Видео: 864x480, ~1 000 kbps, 23,976 FPS, x264
Аудио RUS: MP3, ~128 kbps, 2ch, 48 kHz
Аудио JAP: AAC, ~350 kbps, 2ch, 48 kHz
Аудио JAP: AC3, ~192 kbps, 2ch, 48 kHz — комментарии сейю

MI

General
Complete name : E:\HDRips\Munto\World Reflected in the Pupils of a Girl Watching the Sky\[FLsnow][MUNTO][Sora_wo_Miageru_Shoujo_no_Hitomi_ni_Utsuru_Sekai][01][DVDRIP][AVC_AAC_AC3][77AC7455].mp4
Format : MPEG-4
Format profile : Base Media
Codec ID : isom
File size : 284 MiB
Duration : 24mn 41s
Overall bit rate mode : Variable
Overall bit rate : 1 607 Kbps
Encoded date : UTC 2009-08-27 15:14:14
Tagged date : UTC 2009-08-27 15:14:14
Video
ID : 1
Format : AVC
Format/Info : Advanced Video Codec
Format profile : [email protected]
Format settings, CABAC : Yes
Format settings, ReFrames : 8 frames
Codec ID : avc1
Codec ID/Info : Advanced Video Coding
Duration : 24mn 40s
Bit rate : 1 058 Kbps
Maximum bit rate : 7 516 Kbps
Width : 864 pixels
Height : 480 pixels
Display aspect ratio : 16:9
Frame rate mode : Constant
Frame rate : 23.976 fps
Color space : YUV
Chroma subsampling : 4:2:0
Bit depth : 8 bits
Scan type : Progressive
Bits/(Pixel*Frame) : 0.106
Stream size : 187 MiB (66%)
Writing library : x264 core 67
Encoding settings : cabac=1 / ref=8 / deblock=1:1:-1 / analyse=0x3:0x133 / me=tesa / me-prepass=1 / subme=9 / psy_rd=0.0:0.0 / mixed_ref=1 / me_range=32 / chroma_me=1 / trellis=2 / 8x8dct=1 / cqm=0 / deadzone=21,11 / chroma_qp_offset=0 / threads=3 / thread_queue=3 / nr=0 / decimate=0 / mbaff=0 / bframes=16 / b_pyramid=1 / b_adapt=2 / b_bias=0 / direct=3 / wpredb=1 / keyint=240 / keyint_min=24 / scenecut=55 / rc=crf / crf=19.0 / qcomp=0.60 / qpmin=8 / qpmax=51 / qpstep=8 / ip_ratio=1.40 / pb_ratio=1.30 / aq=1 / aq-strength=0.50:0.50:0.50:0.50:0.50:0.50:0.50 / aq-sensitivity=10.00 / aq-ifactor=1.00:1.00 / aq-pfactor=1.00:1.00 / aq-bfactor=1.00:1.00 / aq-metric=0 / aq-boundary=192:64:24
Language : Japanese
Encoded date : UTC 2009-04-16 14:00:30
Tagged date : UTC 2009-08-27 15:14:29
Audio #1
ID : 2
Format : AAC
Format/Info : Advanced Audio Codec
Format profile : LC
Codec ID : 40
Duration : 24mn 41s
Bit rate mode : Variable
Bit rate : 353 Kbps
Maximum bit rate : 450 Kbps
Channel(s) : 2 channels
Channel positions : Front: L R
Sampling rate : 48.0 KHz
Compression mode : Lossy
Stream size : 62.5 MiB (22%)
Language : Japanese
Encoded date : UTC 2009-08-27 15:14:22
Tagged date : UTC 2009-08-27 15:14:29
Audio #2
ID : 3
Format : AC-3
Format/Info : Audio Coding 3
Mode extension : CM (complete main)
Format settings, Endianness : Big
Codec ID : ac-3
Duration : 24mn 41s
Bit rate mode : Constant
Bit rate : 192 Kbps
Channel(s) : 2 channels
Channel positions : Front: L R
Sampling rate : 48.0 KHz
Bit depth : 16 bits
Compression mode : Lossy
Stream size : 33.9 MiB (12%)
Encoded date : UTC 2009-08-27 15:14:25
Tagged date : UTC 2009-08-27 15:14:29

Мунто (фильм) - п/ф, киноверсия ТВ-сериала, 2009

Last War of Heavenloids and Akutoloids
Мунто-Производство: Япония
Год выпуска: 2009
Жанр: фэнтези, романтика, драма
Тип: полнометражный фильм, 83 мин.-Перевод:
Озвучка от Cuba77
Субтитры Sora P3 Heaven & Stan WarHammer-Режиссёр: Кигами Ёсидзи
Автор оригинала: Кигами Ёсидзи
Студия: Kyoto Animation-Описание: Далекий волшебный мир парит в небесах, опираясь на магические колонны. За эту легкость и одновременно прочность отвечает элемент "акуто". Этим миром управляет маг-король Мунто. Он молод и очень силен, но запасы "акуто" заканчиваются. скоро колонны могут не выдержать веса. В мире людей живет девчонка Юмэри. Она способна видеть этот мир и восстанавливать "акуто", но люди постоянно говорят ей, что в облаках ничего нет и она уже почти поверила...-Качество: DVDRip \ Формат: MKV
Тип видео: без хардсаба
Видео: H264, 864х480, 23.976fps, 1508 Kbps
Аудио RUS: AAC, stereo, 44100 Hz,2ch, 192 kbps
Аудио JAP: AAC, 5.1, 44100 Hz,2 ch, 192 kbps

MI

General
Unique ID : 183904133214813036348932249823473930568 (0x8A5AA5D0070EA66A93689C56C9859148)
Complete name : E:\HDRips\Munto\Last War of Heavenloids and Akutoloids\Мунто фильм (2009) DVDRip.mkv
Format : Matroska
Format version : Version 2
File size : 894 MiB
Duration : 1h 22mn
Overall bit rate : 1 508 Kbps
Encoded date : UTC 2011-03-03 07:33:37
Writing application : mkvmerge v2.9.8 ('C'est le bon') built on Aug 13 2009 12:49:06
Writing library : libebml v0.7.7 + libmatroska v0.8.1
Video
ID : 1
Format : AVC
Format/Info : Advanced Video Codec
Format profile : [email protected]
Format settings, CABAC : Yes
Format settings, ReFrames : 4 frames
Codec ID : V_MPEG4/ISO/AVC
Duration : 1h 22mn
Width : 864 pixels
Height : 480 pixels
Display aspect ratio : 16:9
Frame rate mode : Constant
Frame rate : 23.976 fps
Color space : YUV
Chroma subsampling : 4:2:0
Bit depth : 8 bits
Scan type : Progressive
Writing library : x264 core 68 r1183M f21daff
Encoding settings : cabac=1 / ref=4 / deblock=1:0:0 / analyse=0x3:0x133 / me=umh / subme=7 / psy_rd=0.0:0.0 / mixed_ref=1 / me_range=32 / chroma_me=1 / trellis=1 / 8x8dct=1 / cqm=0 / deadzone=21,11 / chroma_qp_offset=0 / threads=3 / nr=0 / decimate=0 / mbaff=0 / bframes=4 / b_pyramid=1 / b_adapt=2 / b_bias=0 / direct=3 / wpredb=1 / keyint=250 / keyint_min=25 / scenecut=40 / rc=crf / crf=18.0 / qcomp=0.60 / qpmin=10 / qpmax=32 / qpstep=4 / ip_ratio=1.40 / pb_ratio=1.30 / aq=0
Language : Japanese
Default : Yes
Forced : No
Audio #1
ID : 2
Format : AAC
Format/Info : Advanced Audio Codec
Format profile : LC
Codec ID : A_AAC
Duration : 1h 22mn
Channel(s) : 2 channels
Channel positions : Front: L R
Sampling rate : 44.1 KHz
Compression mode : Lossy
Language : Russian
Default : Yes
Forced : No
Audio #2
ID : 3
Format : AAC
Format/Info : Advanced Audio Codec
Format profile : LC
Codec ID : A_AAC
Duration : 1h 22mn
Channel(s) : 2 channels
Channel positions : Front: L R
Sampling rate : 48.0 KHz
Compression mode : Lossy
Title : Anime
Language : Japanese
Default : No
Forced : No

Создавать темы 17-Июл-2015 18:57

[Профиль]  [ЛС] 

Азиз87

Стаж: 4 года 11 месяцев

Сообщений: 752

Симпатии: 143

Сам смотрел и овы и ремейк (фильм после ремейка уже не стал смотреть) одно могу сказать лучше остановиться на ремейке.

Создавать темы 18-Июл-2015 09:38

[Профиль]  [ЛС] 
Показать сообщения:    
Ответить на тему

Текущее время: 22-Окт 18:55

Часовой пояс: UTC + 5



Вы не можете начинать темы
Вы не можете отвечать на сообщения
Вы не можете редактировать свои сообщения
Вы не можете удалять свои сообщения
Вы не можете голосовать в опросах
Вы не можете прикреплять файлы к сообщениям
Вы не можете скачивать файлы