Рэй Донован / Ray Donovan / Сезон: 3 / Серии: 1-12 (12) (Аллен Култер) [2015, драма, криминал, HDTVRip] MVO (NewStudio)

Ответить на тему
 

GRIMM ®

Стаж: 6 лет 7 месяцев

Сообщений: 811

Симпатии: 172

Рэй Донован / Ray Donovan
Сезон 3 Серия 1-12

-Год выпуска: 2015
Страна: США
Жанр: драма, криминал
Продолжительность: ~ 00:53:00
Перевод: Профессиональный многоголосый закадровый [NewStudio]-Режиссёр: Аллен Коултер-В ролях: Лив Шрайбер, Паула Малкомсон, Кэтрин Монниг, Пуч Холл, Кэррис Дорси, Девон Бэгби, Джон Войт, Стивен Бауэр, Уильям Стэнфорд Дэвис, Майкл МакГрэйди, Фрэнк Уэйли, Эллиотт Гулд, Октавиус Дж. Джонсон, Эмбир Чилдерс, Хезер МакКомб-Описание: Сериал расскажет о Рэе Доноване, профессиональном "разруливателе проблем", которого вызывают, когда у кого-то из "богатых и знаменитых" жителей Лос-Анджелеса возникают сложности.-Качество: HDTVRip
Формат: AVI
Видео кодек: XviD
Аудио кодек: MP3
Видео: 720x400 (1.80:1), 23.976 fps, XviD build 73 ~1575 kbps avg, 0.228 bit/pixel
Аудио Rus: 48 kHz, MPEG Layer 3, 2 ch, ~128.00 kbps avg
Аудио Eng: 48 kHz, MPEG Layer 3
,

MediaInfo

Общее:
Формат : AVI
Формат/Информация : Audio Video Interleave
Размер файла : 689 Мбайт
Продолжительность : 52 м.
Общий поток : 1831 Кбит/сек
Программа кодирования : VirtualDubMod 1.5.10.2 (build 2540/release)
Библиотека кодирования : VirtualDubMod build 2540/release
Видео:
Формат : MPEG-4 Visual
Профиль формата : Advanced [email protected]
Параметр BVOP формата : 2
Параметр QPel формата : Нет
Параметр GMC формата : Без точки перехода
Параметр матрицы формата : Default (MPEG)
Идентификатор кодека : XVID
Идентификатор кодека/Подсказка : XviD
Продолжительность : 52 м.
Битрейт : 1561 Кбит/сек
Ширина : 720 пикселей
Высота : 400 пикселей
Соотношение сторон : 16:9
Частота кадров : 23,976 кадра/сек
Цветовое пространство : YUV
Субдискретизация насыщенности : 4:2:0
Битовая глубина : 8 бит
Тип развёртки : Прогрессивная
Метод сжатия : С потерями
Бит/(Пиксели*Кадры) : 0.226
Размер потока : 587 Мбайт (85%)
Библиотека кодирования : XviD 73
Аудио #1:
Формат : MPEG Audio
Версия формата : Version 1
Профиль формата : Layer 3
Режим : Joint stereo
Расширение режима : MS Stereo
Идентификатор кодека : 55
Идентификатор кодека/Подсказка : MP3
Продолжительность : 52 м.
Вид битрейта : Постоянный
Битрейт : 128 Кбит/сек
Каналы : 2 канала
Частота : 48,0 КГц
Метод сжатия : С потерями
Размер потока : 48,2 Мбайт (7%)
Выравнивание : Соединение по промежуткам
Продолжительность промежутка : 42 мс. (1,00 видеокадр)
Время предзагрузки промежутка : 504 мс.
Аудио #2:
Формат : MPEG Audio
Версия формата : Version 1
Профиль формата : Layer 3
Режим : Joint stereo
Расширение режима : MS Stereo
Идентификатор кодека : 55
Идентификатор кодека/Подсказка : MP3
Продолжительность : 52 м.
Вид битрейта : Постоянный
Битрейт : 128 Кбит/сек
Каналы : 2 канала
Частота : 48,0 КГц
Метод сжатия : С потерями
Размер потока : 48,2 Мбайт (7%)
Выравнивание : Соединение по промежуткам
Продолжительность промежутка : 42 мс. (1,00 видеокадр)
Время предзагрузки промежутка : 504 мс.

Скриншоты




Последний раз редактировалось: GRIMM (2015-10-20 21:23), всего редактировалось 13 раз(а)

Создавать темы 17-Июл-2015 21:54

[Профиль]  [ЛС] 

MiamiBoy

Стаж: 6 лет 3 месяца

Сообщений: 136

Симпатии: 7

залейте 2 серию

Создавать темы 24-Июл-2015 20:14

[Профиль]  [ЛС] 

GRIMM ®

Стаж: 6 лет 7 месяцев

Сообщений: 811

Симпатии: 172

Добавил 2 серию

Создавать темы 25-Июл-2015 21:13

[Профиль]  [ЛС] 

MiamiBoy

Стаж: 6 лет 3 месяца

Сообщений: 136

Симпатии: 7

где 3 серия? она же была

Создавать темы 30-Июл-2015 20:21

[Профиль]  [ЛС] 

GRIMM ®

Стаж: 6 лет 7 месяцев

Сообщений: 811

Симпатии: 172

Добавил 3 серию

Создавать темы 31-Июл-2015 18:35

[Профиль]  [ЛС] 

GRIMM ®

Стаж: 6 лет 7 месяцев

Сообщений: 811

Симпатии: 172

Добавил 4 серию

Создавать темы 04-Авг-2015 21:56

[Профиль]  [ЛС] 

GRIMM ®

Стаж: 6 лет 7 месяцев

Сообщений: 811

Симпатии: 172

Добавил 5 серию

Создавать темы 18-Авг-2015 14:15

[Профиль]  [ЛС] 

GRIMM ®

Стаж: 6 лет 7 месяцев

Сообщений: 811

Симпатии: 172

Добавил 6 серию

Создавать темы 24-Авг-2015 19:20

[Профиль]  [ЛС] 

GRIMM ®

Стаж: 6 лет 7 месяцев

Сообщений: 811

Симпатии: 172

Добавил 7-8 серию

Создавать темы 03-Сен-2015 21:54

[Профиль]  [ЛС] 

Drogba

Стаж: 5 лет 4 месяца

Сообщений: 60

Симпатии: 14

дайте скорость плиз 2 дня нету скорости

Создавать темы 05-Сен-2015 22:39

[Профиль]  [ЛС] 

GRIMM ®

Стаж: 6 лет 7 месяцев

Сообщений: 811

Симпатии: 172

Добавил 9-10 серию

Создавать темы 19-Сен-2015 06:46

[Профиль]  [ЛС] 

GRIMM ®

Стаж: 6 лет 7 месяцев

Сообщений: 811

Симпатии: 172

Добавил 11 серию

Создавать темы 26-Сен-2015 20:11

[Профиль]  [ЛС] 

GRIMM ®

Стаж: 6 лет 7 месяцев

Сообщений: 811

Симпатии: 172

Добавил 12 серию ФИНАЛ СЕЗОНА

Создавать темы 29-Сен-2015 19:51

[Профиль]  [ЛС] 
Показать сообщения:    
Ответить на тему

Текущее время: 24-Авг 02:31

Часовой пояс: UTC + 5



Вы не можете начинать темы
Вы не можете отвечать на сообщения
Вы не можете редактировать свои сообщения
Вы не можете удалять свои сообщения
Вы не можете голосовать в опросах
Вы не можете прикреплять файлы к сообщениям
Вы не можете скачивать файлы