Мой лучший роман / A Novel Romance (Марк Гриффитс) [2015, США, мелодрама, HDTVRip] (L1 : Lord32x)

Ответить на тему
 

FireHowler ®

Стаж: 4 года 6 месяцев

Сообщений: 270

Симпатии: 153

Мой лучший роман / A Novel Romance
Страна: США
Жанр: мелодрама
Год выпуска: 2015
Продолжительность: 01:23:20
Перевод: Любительское (одноголосое) [Lord32x]
Cубтитры: нет
Режиссер: Марк Гриффитс
В ролях: Камилль Митчелл, Тэмми Гиллис, Кэйси Мандерсон, Чарльз С. Даттон, Мило Шендел, Эмили Теннант, Элиссон Амиго, Мэтт Хэмилтон, Michael Meneer, Мария Дж. Круз
Описание: Автор популярных романов переживает проблемы творческого вдохновения. Чтобы набраться новых впечатлений и сил для новой книги он решил отправиться в маленький и тихий город. Еще в самолете писатель знакомится с очаровательной девушкой. Но он не решается сказать ей о своем занятии. Еще бы, ведь эта девушка оказалась не менее известным критиком, которая не раз вставляла палки в колеса в его творчество. Но это не мешает им прекрасно проводить время вместе, наслаждаясь каждым моментом. Молодые люди влюбляются. Но что будет, когда вся правда раскроется?
Качество видео: HDTVRip
Формат видео: AVI
Видео: XviD, 2120 kb/s, 720x304
Аудио: AC3, 384 kb/s (6 ch)

MediaInfo

Video
ID : 0
Format : MPEG-4 Visual
Format profile : Advanced [email protected]
Format settings, BVOP : 1
Format settings, QPel : No
Format settings, GMC : No warppoints
Format settings, Matrix : Default (H.263)
Codec ID : XVID
Codec ID/Hint : XviD
Duration : 1h 23mn
Bit rate : 2 120 Kbps
Width : 720 pixels
Height : 400 pixels
Display aspect ratio : 16:9
Frame rate : 24.000 fps
Color space : YUV
Chroma subsampling : 4:2:0
Bit depth : 8 bits
Scan type : Progressive
Compression mode : Lossy
Bits/(Pixel*Frame) : 0.307
Stream size : 1.23 GiB (84%)
Writing library : XviD 1.2.1 (UTC 2008-12-04)
Audio
ID : 1
Format : AC-3
Format/Info : Audio Coding 3
Mode extension : CM (complete main)
Format settings, Endianness : Big
Codec ID : 2000
Duration : 1h 23mn
Bit rate mode : Constant
Bit rate : 384 Kbps
Channel(s) : 6 channels
Channel positions : Front: L C R, Side: L R, LFE
Sampling rate : 48.0 KHz
Compression mode : Lossy
Stream size : 229 MiB (15%)
Alignment : Split accross interleaves
Interleave, duration : 42 ms (1.00 video frame)
Interleave, preload duratio : 500 ms

Скриншоты





Последний раз редактировалось: FireHowler (2015-07-18 12:48), всего редактировалось 1 раз

Создавать темы 18-Июл-2015 12:04

[Профиль]  [ЛС] 
Показать сообщения:    
Ответить на тему

Текущее время: 24-Ноя 06:39

Часовой пояс: UTC + 5



Вы не можете начинать темы
Вы не можете отвечать на сообщения
Вы не можете редактировать свои сообщения
Вы не можете удалять свои сообщения
Вы не можете голосовать в опросах
Вы не можете прикреплять файлы к сообщениям
Вы не можете скачивать файлы