Дракон: История Брюса Ли / Dragon: The Bruce Lee Story (Роб Коэн) [1993, США, Биография, Боевики, Драмы, DVDRip] [оператор Дэвид Эггби] (DVO) (Sub Rus + Original Eng)

Ответить на тему
 

Andalib_street ®

Стаж: 5 лет 9 месяцев

Сообщений: 8

Симпатии: 3

Дракон: История Брюса Ли / Dragon: The Bruce Lee Story / оператор Дэвид Эггби
Страна: США
Жанр: Биография, Боевики, Драмы
Год выпуска: 1993
Продолжительность: 1:59:52
Перевод: Любительский (двухголосый закадровый)-Режиссер: Роб Коэн-В ролях: Джейсон Скотт Ли, Лорен Холли, Роберт Вагнер, Майкл Лернд, Нэнси Кван, Кэй Тонг Лим, Рик Янг, Лоюн Ван, Стерлинг Мейсер мл., Свен-Оле Торсен-Описание: Биографическая драма, рассказывающая о жизни легендарного Брюса Ли, погибшего таинственным образом. Фильм снят по воспоминаниям жены Брюса Линды Ли Колдуэлл. Создатели ленты попытались показать Ли как человека, преодолевающего препятствия, неуклонно идущего к цели. Мистика и реальность переплетаются друг с другом, и Брюс Ли, великий маленький дракон, вступает в бой не только с окружающей действительностью, но и с демоном преследующих его-Доп. информация:
бюджет $14 000 000
сборы в США $35 113 743
сборы в мире $28 400 000 = $63 513 743-Качество видео: DVDRip
Формат видео: MKV-Видео: MPEG4 Video (H264) 720x304 23.976fps
Аудио: AC3 48000Hz stereo 192kbps RUS
Аудио 2: AC3 48000Hz 6ch 448kbps ENG-

MediaInfo

General
Format : Matroska
Format version : Version 2
File size : 1.81 GiB
Duration : 1h 59mn
Overall bit rate : 2 167 Kbps
Movie name : Дракон: История жизни Брюса Ли / Dragon: The Bruce Lee Story [1993]
Encoded date : UTC 2010-03-07 09:17:59
Writing application : mkvmerge v3.2.0 ('Beginnings') built on Feb 12 2010 16:46:17
Writing library : libebml v0.7.9 + libmatroska v0.8.1
Video
ID : 1
Format : AVC
Format/Info : Advanced Video Codec
Format profile : [email protected]
Format settings, CABAC : Yes
Format settings, ReFrames : 14 frames
Codec ID : V_MPEG4/ISO/AVC
Duration : 1h 59mn
Bit rate : 1 484 Kbps
Width : 720 pixels
Height : 304 pixels
Display aspect ratio : 2.35:1
Frame rate mode : Constant
Frame rate : 23.976 fps
Color space : YUV
Chroma subsampling : 4:2:0
Bit depth : 8 bits
Scan type : Progressive
Bits/(Pixel*Frame) : 0.283
Stream size : 1.24 GiB (68%)
Title : Taran2L
Language : English
Default : Yes
Forced : No
Audio #1
ID : 2
Format : AC-3
Format/Info : Audio Coding 3
Format profile : Dolby Digital
Mode extension : CM (complete main)
Format settings, Endianness : Big
Codec ID : A_AC3
Duration : 1h 59mn
Bit rate mode : Constant
Bit rate : 192 Kbps
Channel(s) : 2 channels
Channel positions : Front: L R
Sampling rate : 48.0 KHz
Bit depth : 16 bits
Compression mode : Lossy
Delay relative to video : 7ms
Stream size : 165 MiB (9%)
Title : В. Дохалов
Language : Russian
Default : Yes
Forced : No
Audio #2
ID : 3
Format : AC-3
Format/Info : Audio Coding 3
Mode extension : CM (complete main)
Format settings, Endianness : Big
Codec ID : A_AC3
Duration : 1h 59mn
Bit rate mode : Constant
Bit rate : 448 Kbps
Channel(s) : 6 channels
Channel positions : Front: L C R, Side: L R, LFE
Sampling rate : 48.0 KHz
Bit depth : 16 bits
Compression mode : Lossy
Delay relative to video : 7ms
Stream size : 384 MiB (21%)
Language : English
Default : No
Forced : No

Скриншоты




Создавать темы 18-Июл-2015 22:43

[Профиль]  [ЛС] 

Топик был перенесен из форума Зарубежное кино в форум Фильмы до 2010
Mixer City

Создавать темы 19-Июл-2015 02:59

 
Показать сообщения:    
Ответить на тему

Текущее время: 17-Авг 01:03

Часовой пояс: UTC + 5



Вы не можете начинать темы
Вы не можете отвечать на сообщения
Вы не можете редактировать свои сообщения
Вы не можете удалять свои сообщения
Вы не можете голосовать в опросах
Вы не можете прикреплять файлы к сообщениям
Вы не можете скачивать файлы