Люди Икс: Дни минувшего будущего / X-Men: Days of Future Past (Брайан Сингер) [2014, США, Великобритания, фантастика, боевик, триллер, приключения, BDRip] [(Расширенная версия / Unrated cut)] (Dub) (Sub Rus)

Ответить на тему
 

Phantom888 ®

Стаж: 4 года 1 месяц

Сообщений: 13

Симпатии: 24

Люди Икс: Дни минувшего будущего / X-Men: Days of Future Past / (Расширенная версия / Unrated cut)(BDRip)
Страна: США, Великобритания
Жанр: фантастика, боевик, триллер, приключения
Год выпуска: 2014
Продолжительность: 02:28:45
Перевод: Профессиональный (дублированный)
Cубтитры: русские
Режиссер: Брайан Сингер
В ролях: Джеймс МакЭвой, Майкл Фассбендер, Хью Джекман, Дженнифер Лоуренс, Николас Холт, Питер Динклэйдж, Иэн МакКеллен, Патрик Стюарт, Эллен Пейдж, Холли Берри
Описание: В недалёком будущем мутанты близки к истреблению роботами-охотниками на мутантов Стражами. Единственная надежда для мутантов выжить — предотвратить череду роковых событий, приведших к появлению Стражей. С помощью своих способностей, Китти Прайд перемещает сознание Росомахи в его молодое тело в 1973 год. В прошлом всё оказывается не так радужно: молодой Профессор Икс окончательно разочарован в своих идеях, Магнето содержится в тюрьме глубоко под землёй, а человечество не знает как реагировать на широкое появление мутантов…
Доп. информация: Абсолютно новая, не показанная в кинотеатрах версия фильма «Люди Икс: Дни минувшего будущего» еще глубже погрузит вас во вселенную Людей Икс. Когда армия безжалостных роботов Стражей начинает охоту на мутантов и людей, непобедимые персонажи предыдущих фильмов «Люди Икс» переселяются в юных себя, пытаясь изменить прошлое – и спасти будущее.
Качество видео: BDRip
Формат видео: AVI
Видео: 720x304 (2.37:1), 23.976 fps, XviD build 73 ~1206 kbps avg, 0.23 bit/pixel
Аудио: 48 kHz, AC3 Dolby Digital, 2/0 (L,R) ch, ~192.00 kbps avg
Формат субтитров: softsub (SRT)

MediaInfo

General
Complete name : D:\Ludi_X_Dni_minuvshego_buduschego_2014_BDRip_[The Rogue Cut]_by_Dalemake.avi
Format : AVI
Format/Info : Audio Video Interleave
File size : 1.46 GiB
Duration : 2h 28mn
Overall bit rate : 1 408 Kbps
Writing application : VirtualDubMod 1.5.10.3 | www.virtualdub-fr.org || (build 2550/release)
Writing library : VirtualDubMod build 2550/release
Video
ID : 0
Format : MPEG-4 Visual
Format profile : Advanced [email protected]
Format settings, BVOP : 1
Format settings, QPel : No
Format settings, GMC : No warppoints
Format settings, Matrix : Custom
Codec ID : XVID
Codec ID/Hint : XviD
Duration : 2h 28mn
Bit rate : 1 206 Kbps
Width : 720 pixels
Height : 304 pixels
Display aspect ratio : 2.35:1
Frame rate : 23.976 fps
Color space : YUV
Chroma subsampling : 4:2:0
Bit depth : 8 bits
Scan type : Progressive
Compression mode : Lossy
Bits/(Pixel*Frame) : 0.230
Stream size : 1.25 GiB (86%)
Writing library : XviD 73
Audio
ID : 1
Format : AC-3
Format/Info : Audio Coding 3
Mode extension : CM (complete main)
Format settings, Endianness : Big
Codec ID : 2000
Duration : 2h 28mn
Bit rate mode : Constant
Bit rate : 192 Kbps
Channel(s) : 2 channels
Channel positions : Front: L R
Sampling rate : 48.0 KHz
Bit depth : 16 bits
Compression mode : Lossy
Stream size : 204 MiB (14%)
Alignment : Split accross interleaves
Interleave, duration : 42 ms (1.00 video frame)
Interleave, preload duration : 500 ms

Скриншот c названием фильма

Скриншоты



Последний раз редактировалось: Phantom888 (2015-07-23 01:17), всего редактировалось 4 раз(а)

Создавать темы 19-Июл-2015 05:00

[Профиль]  [ЛС] 

Moroz

Стаж: 4 года

Сообщений: 22

Симпатии: 2

Phantom888 Что-то у вас скриншоты какие то не понятные, разных размеров. ai av

Создавать темы 21-Июл-2015 22:19

[Профиль]  [ЛС] 

Moroz

Стаж: 4 года

Сообщений: 22

Симпатии: 2

Один вообще 1680х1050... хотя фильм 720х304.

Создавать темы 21-Июл-2015 22:21

[Профиль]  [ЛС] 

RedBull

Стаж: 6 лет 7 месяцев

Сообщений: 185

Симпатии: 4

Продолжительность этой чатси не 2:11 а 2:28:45 измени,это ведь расширенная версия тут +17 минут добавлено

Создавать темы 22-Июл-2015 17:44

[Профиль]  [ЛС] 

Phantom888 ®

Стаж: 4 года 1 месяц

Сообщений: 13

Симпатии: 24

длительность изменил


Последний раз редактировалось: Phantom888 (2015-07-23 01:18), всего редактировалось 2 раз(а)

Создавать темы 23-Июл-2015 01:12

[Профиль]  [ЛС] 

Phantom888 ®

Стаж: 4 года 1 месяц

Сообщений: 13

Симпатии: 24

скрины поменял

Создавать темы 23-Июл-2015 01:18

[Профиль]  [ЛС] 

mars751

Стаж: 5 лет 7 месяцев

Сообщений: 227

Симпатии: 113

и че как фильм?*

Создавать темы 23-Июл-2015 09:05

[Профиль]  [ЛС] 

RedBull

Стаж: 6 лет 7 месяцев

Сообщений: 185

Симпатии: 4

945258и че как фильм?*
в отличии от урезанной версии эта чать мне понравилась больше,хотя фильм всё тот же но эти 17 минут изменили почти многое

Создавать темы 23-Июл-2015 18:03

[Профиль]  [ЛС] 
Показать сообщения:    
Ответить на тему

Текущее время: 22-Ноя 08:52

Часовой пояс: UTC + 5



Вы не можете начинать темы
Вы не можете отвечать на сообщения
Вы не можете редактировать свои сообщения
Вы не можете удалять свои сообщения
Вы не можете голосовать в опросах
Вы не можете прикреплять файлы к сообщениям
Вы не можете скачивать файлы