Дальняя дорога / The Longest Ride (Джордж Тиллман мл. / George Tillman Jr.) [2015, США, драма, мелодрама, BDRip] (Dub : iTunes Russia)

Ответить на тему
 

FireHowler ®

Стаж: 4 года 6 месяцев

Сообщений: 270

Симпатии: 153

Дальняя дорога / The Longest Ride
Страна: США
Жанр: драма, мелодрама
Год выпуска: 2015
Продолжительность: 02:08:20
Перевод: Профессиональный (дублированный)
Озвучивание: Дублированное [iTunes]
Cубтитры: нет
Режиссер: Джордж Тиллман мл. / George Tillman Jr.
В ролях: Скотт Иствуд (Luke Collins), Бритт Робертсон (Sophia Danko), Алан Алда (Ira Levinson), Джек Хьюстон (Young Ira), Уна Чаплин (Young Ruth), Мелисса Бенойст (Marcia), Лолита Давидович (Kate Collins), Элеа Оберон (Mrs. Pfeffer), Кейт Форбс (Ira's Mother), Тьяго Риани (Luiz), Дэнни Винсон (Larry Till)
Описание: Люк — экс-чемпион по родео, раздумывающий над возвращением в спорт. София — выпускница колледжа, получившая заманчивое предложение о работе в сфере искусства в Нью-Йорке. В то время как молодые люди пытаются сделать нелегкий выбор между чувствами и мечтами, жизнь сталкивает их со стариком Айрой. Воспоминания нового друга о его полувековых отношениях с женой вдохновляют Софию и Люка на главные решения в их жизни. Два поколения, две истории, вечная любовь.
Качество видео: BDRip
Формат видео: AVI
Видео: 720x304 (2.37:1), 23.976 fps, XviD build 73 ~1234 kbps avg, 0.24 bit/pixel
Аудио: 48 kHz, AC3 Dolby Digital, 3/2 (L,C,R,l,r) + LFE ch, ~384.00 kbps avg

MediaInfo

Video
ID : 0
Format : MPEG-4 Visual
Format profile : Advanced [email protected]
Format settings, BVOP : 1
Format settings, QPel : No
Format settings, GMC : No warppoints
Format settings, Matrix : Custom
Codec ID : XVID
Codec ID/Hint : XviD
Duration : 2h 8mn
Bit rate : 1 235 Kbps
Width : 720 pixels
Height : 304 pixels
Display aspect ratio : 2.35:1
Frame rate : 23.976 fps
Color space : YUV
Chroma subsampling : 4:2:0
Bit depth : 8 bits
Scan type : Progressive
Compression mode : Lossy
Bits/(Pixel*Frame) : 0.235
Stream size : 1.11 GiB (76%)
Writing library : XviD 73
Audio
ID : 1
Format : AC-3
Format/Info : Audio Coding 3
Mode extension : CM (complete main)
Format settings, Endianness : Big
Codec ID : 2000
Duration : 2h 8mn
Bit rate mode : Constant
Bit rate : 384 Kbps
Channel(s) : 6 channels
Channel positions : Front: L C R, Side: L R, LFE
Sampling rate : 48.0 KHz
Bit depth : 16 bits
Compression mode : Lossy
Stream size : 352 MiB (24%)
Alignment : Split accross interleaves
Interleave, duration : 42 ms (1.00 video frame)
Interleave, preload duration : 500 ms

Скриншоты



Создавать темы 19-Июл-2015 10:39

[Профиль]  [ЛС] 
Показать сообщения:    
Ответить на тему

Текущее время: 21-Ноя 20:58

Часовой пояс: UTC + 5



Вы не можете начинать темы
Вы не можете отвечать на сообщения
Вы не можете редактировать свои сообщения
Вы не можете удалять свои сообщения
Вы не можете голосовать в опросах
Вы не можете прикреплять файлы к сообщениям
Вы не можете скачивать файлы