Аллилуйя / Alléluia (Фабрис дю Вельц) [2014, Бельгия, Франция, триллер, драма, DVDRip] (Dub : [liosaa])

Ответить на тему
 

Гость

Стаж: 47 лет

Аллилуйя / Alléluia Страна: Бельгия, Франция
Жанр: триллер, драма
Год выпуска: 2014
Продолжительность: 01:29:27
Перевод: Любительский (дублированный) Доп. инфо о переводе [liosaa]
Cубтитры: нет
Режиссер: Фабрис дю Вельц
В ролях: Лола Дуэньяс, Лоран Люка, Элена Ногуэрра, Эдит ле Мерди, Энн-Мари Луп, Стефан Биссо, Давид Муржиа, Рено Раттен, Филипп Резимон
Описание: Мать-одиночка Глория встречается с мужчиной, который нашел ее на сайте знакомств. Ужин, вино, секс — все настолько безупречно, что наутро впечатлительная Глория уже не может представить свою жизнь без Мишеля, который оказывается профессиональным жиголо. Но страсть уже полностью завладела Глорией — чтобы не расставаться с Мишелем, она становится его верной компаньоншей. И только ее неконтролируемая ревность мешает проворачивать аферы с доверчивыми вдовами бескровно…
Качество видео: DVDRip
Формат видео: AVI
Видео: XviD, 1937 kb/s, 720x304
Аудио: AC3, 384 kb/s (6 ch)

MediaInfo

General
Complete name : D:\Down\Alleluia.2014.DVDRip.avi
Format : AVI
Format/Info : Audio Video Interleave
File size : 1.41 GiB
Duration : 1h 29mn
Overall bit rate : 2 265 Kbps
Writing application : VirtualDubMod 1.5.10.2 (build 2540/release)
Writing library : VirtualDubMod build 2540/release
Video
ID : 0
Format : MPEG-4 Visual
Format profile : Advanced [email protected]
Format settings, BVOP : Yes
Format settings, QPel : No
Format settings, GMC : No warppoints
Format settings, Matrix : Default (H.263)
Codec ID : DIVX
Codec ID/Info : Project Mayo
Codec ID/Hint : DivX 4
Duration : 1h 29mn
Bit rate : 1 871 Kbps
Width : 720 pixels
Height : 304 pixels
Display aspect ratio : 2.35:1
Frame rate : 25.000 fps
Color space : YUV
Chroma subsampling : 4:2:0
Bit depth : 8 bits
Scan type : Progressive
Compression mode : Lossy
Bits/(Pixel*Frame) : 0.342
Stream size : 1.17 GiB (83%)
Writing library : XviD 64
Audio
ID : 1
Format : AC-3
Format/Info : Audio Coding 3
Mode extension : CM (complete main)
Format settings, Endianness : Big
Codec ID : 2000
Duration : 1h 29mn
Bit rate mode : Constant
Bit rate : 384 Kbps
Channel(s) : 2 channels
Channel positions : Front: L R
Sampling rate : 48.0 KHz
Bit depth : 16 bits
Compression mode : Lossy
Stream size : 246 MiB (17%)
Alignment : Split accross interleaves
Interleave, duration : 40 ms (1.00 video frame)
Interleave, preload duration : 500 ms

Скриншоты




Создавать темы 22-Июл-2015 17:15

[Профиль]  [ЛС] 
Показать сообщения:    
Ответить на тему

Текущее время: 22-Авг 02:44

Часовой пояс: UTC + 5



Вы не можете начинать темы
Вы не можете отвечать на сообщения
Вы не можете редактировать свои сообщения
Вы не можете удалять свои сообщения
Вы не можете голосовать в опросах
Вы не можете прикреплять файлы к сообщениям
Вы не можете скачивать файлы