В одну сторону / One Way (Рето Салимбени) [2006, Германия, Триллер, Драма, Криминал, HDTVRip] (MVO) (Sub Rus)

Ответить на тему
 

FireHowler ®

Стаж: 4 года 6 месяцев

Сообщений: 270

Симпатии: 153

В одну сторону / One Way
Страна: Германия
Жанр: Триллер, Драма, Криминал
Год выпуска: 2006
Продолжительность: 01:51:5
Перевод: Профессиональный (многоголосый закадровый)
Cубтитры: русские
Режиссер: Рето Салимбени
В ролях: Тиль Швайгер, Лоурен Ли Смит, Себастьен Робертс, Стефани Фон Пфеттен, Майкл Кларк Дункан, Арт Хиндл, Соня Смитс, Эрик Робертс, Кеннет Уэлш, Нед Беллами.
Описание: Эдди Шнайдер — креативный директор, который работает в рекламном агентстве, принадлежащем отцу его невесты. Его ждут блестящие перспективы — известность, карьера, скорая женитьба. Но обеспечив алиби насильнику и избавив его от тюрьмы, он стал объектом мести со стороны жертвы насилия.
Качество видео: HDTVRip
Формат видео: MKV
Видео: 1280x720p, 25 fps, 5201 kbps
Аудио: Русский AC3 5.1, 48 kHz 448 kbps
Аудио 2: Английский AC3 5.1, 48 kHz 384 kbps
Формат субтитров: UTF-8
 

MediaInfo

Video
ID : 1
Format : AVC
Format/Info : Advanced Video Codec
Format profile : [email protected]
Format settings, CABAC : Yes
Format settings, ReFrames : 4 frames
Codec ID : V_MPEG4/ISO/AVC
Duration : 1h 51mn
Bit rate : 5 201 Kbps
Width : 1 280 pixels
Height : 720 pixels
Display aspect ratio : 16:9
Frame rate mode : Constant
Frame rate : 25.000 fps
Color space : YUV
Chroma subsampling : 4:2:0
Bit depth : 8 bits
Scan type : Progressive
Bits/(Pixel*Frame) : 0.226
Stream size : 3.97 GiB (84%)
Writing library : x264 core 65 r1029M cb3c213
Encoding settings : cabac=1 / ref=4 / deblock=1:-3:-3 / analyse=0x3:0x113 / me=umh / subme=9 / psy_rd=0.9:0.0 / mixed_ref=1 / me_range=24 / chroma_me=1 / trellis=2 / 8x8dct=1 / cqm=0 / deadzone=21,11 / chroma_qp_offset=-2 / threads=6 / nr=0 / decimate=1 / mbaff=0 / bframes=6 / b_pyramid=0 / b_adapt=2 / b_bias=0 / direct=3 / wpredb=1 / keyint=250 / keyint_min=25 / scenecut=40(pre) / rc=2pass / bitrate=5201 / ratetol=1.0 / qcomp=0.60 / qpmin=10 / qpmax=51 / qpstep=4 / cplxblur=20.0 / qblur=0.5 / ip_ratio=1.40 / pb_ratio=1.30 / aq=1:0.70
Language : English
Default : Yes
Forced : No
Audio #1
ID : 2
Format : AC-3
Format/Info : Audio Coding 3
Mode extension : CM (complete main)
Format settings, Endianness : Big
Codec ID : A_AC3
Duration : 1h 51mn
Bit rate mode : Constant
Bit rate : 448 Kbps
Channel(s) : 6 channels
Channel positions : Front: L C R, Side: L R, LFE
Sampling rate : 48.0 KHz
Compression mode : Lossy
Stream size : 359 MiB (7%)
Title : AC3 448 kbps
Language : Russian
Default : Yes
Forced : No
Audio #2
ID : 3
Format : AC-3
Format/Info : Audio Coding 3
Mode extension : CM (complete main)
Format settings, Endianness : Big
Codec ID : A_AC3
Duration : 1h 51mn
Bit rate mode : Constant
Bit rate : 384 Kbps
Channel(s) : 6 channels
Channel positions : Front: L C R, Side: L R, LFE
Sampling rate : 48.0 KHz
Compression mode : Lossy
Stream size : 307 MiB (6%)
Title : AC3 384 kbps
Language : English
Default : No
Forced : No
Text
ID : 4
Format : UTF-8
Codec ID : S_TEXT/UTF8
Codec ID/Info : UTF-8 Plain Text
Language : Russian
Default : Yes
Forced : No

Скриншоты

Создавать темы 23-Июл-2015 07:10

[Профиль]  [ЛС] 

FireHowler ®

Стаж: 4 года 6 месяцев

Сообщений: 270

Симпатии: 153

Скачан: 6 раз
Куда все делись >_<

Создавать темы 24-Июл-2015 19:19

[Профиль]  [ЛС] 

Страх

Стаж: 4 года 1 месяц

Сообщений: 1131

Симпатии: 448

рыжий, https://tas-ix.net/group.php?g=77 был, может мотивации не хватило чтобы остаться)

Создавать темы 30-Июл-2015 15:54

[Профиль]  [ЛС] 

FireHowler ®

Стаж: 4 года 6 месяцев

Сообщений: 270

Симпатии: 153

Страх, Промахнулся темой?)

Создавать темы 31-Июл-2015 18:31

[Профиль]  [ЛС] 
Показать сообщения:    
Ответить на тему

Текущее время: 19-Ноя 00:49

Часовой пояс: UTC + 5



Вы не можете начинать темы
Вы не можете отвечать на сообщения
Вы не можете редактировать свои сообщения
Вы не можете удалять свои сообщения
Вы не можете голосовать в опросах
Вы не можете прикреплять файлы к сообщениям
Вы не можете скачивать файлы