Глухарь. «Опять Новый!» (ТВ) (Игорь Холодков) [2011, комедия, SATRip]

Ответить на тему
 

Захар ®

Стаж: 2 года 4 месяца

Сообщений: 11

Симпатии: 1

Глухарь. «Опять Новый!» (ТВ)
Год выпуска: 2011
Страна: Россия
Жанр: комедия
Продолжительность: 01:27:06
Режиссёр: Игорь Холодков
В ролях: Максим Аверин, Денис Рожков, Виктория Тарасова, Владимир Фекленко, Владислав Котлярский, Александр Бобров, Иосиф Райхельгауз, Константин Тополага, Галина Стаханова, Сергей Друзьяк
Описание: Действие фильма начинается в «обезьяннике» районного ОВД Москвы, куда доставляют задержанного типа лет 60-ти в халате и тапочках. Этот, бомжеватого вида, персонаж утверждает, что он сам Максим Аверин, снимавшийся в сериале «Глухарь» в роли Сергея Глухарева.
Что это за старик, и найдёт ли полиция настоящего Максима Аверина? Как и зачем оказываются на театральной сцене Денис Рожков, он же Антошин, и Александр Бобров, он же Агапов?
Качество видео: SATRip
Формат видео: AVI
Видео: 704x384, DivX - Codec 5.x or 6.x ~1900 Кбит/с
Аудио: MPEG Layer 3, 2 канала, ~192 Кбит/с

MediaInfo

General
Complete name : D:\Кино\Российские сериалы\Глухарь. Новогодние серии\Глухарь. Опять Новый.avi
Format : AVI
Format/Info : Audio Video Interleave
File size : 1.28 GiB
Duration : 1h 27mn
Overall bit rate : 2 102 Kbps
Writing library : VirtualDub-MPEG2 build 24600/release
Video
ID : 0
Format : MPEG-4 Visual
Format settings, BVOP : Yes
Format settings, QPel : No
Format settings, GMC : No warppoints
Format settings, Matrix : Default (H.263)
Codec ID : DX50
Codec ID/Hint : DivX 5
Duration : 1h 27mn
Bit rate : 1 900 Kbps
Width : 704 pixels
Height : 384 pixels
Display aspect ratio : 1.85:1
Frame rate : 25.000 fps
Color space : YUV
Chroma subsampling : 4:2:0
Bit depth : 8 bits
Scan type : Progressive
Compression mode : Lossy
Bits/(Pixel*Frame) : 0.281
Stream size : 1.16 GiB (90%)
Writing library : DivX 6.8.5 (UTC 2009-08-20)
Audio
ID : 1
Format : MPEG Audio
Format version : Version 1
Format profile : Layer 3
Mode : Joint stereo
Codec ID : 55
Codec ID/Hint : MP3
Duration : 1h 27mn
Bit rate mode : Constant
Bit rate : 192 Kbps
Channel(s) : 2 channels
Sampling rate : 48.0 KHz
Compression mode : Lossy
Stream size : 120 MiB (9%)
Alignment : Split accross interleaves
Interleave, duration : 40 ms (1.00 video frame)
Interleave, preload duration : 500 ms

Скриншоты





Последний раз редактировалось: Захар (2015-07-24 07:48), всего редактировалось 4 раз(а)

Создавать темы 23-Июл-2015 20:21

[Профиль]  [ЛС] 

Mixer City

Стаж: 6 лет 11 месяцев

Сообщений: 754

Симпатии: 63

Захар, скрины на img.uz.

Создавать темы 24-Июл-2015 01:16

[Профиль]  [ЛС] 

abror_xon

Стаж: 5 лет 8 месяцев

Сообщений: 27

Симпатии: 4

и когда качаем?

Создавать темы 26-Июл-2015 10:15

[Профиль]  [ЛС] 

abror_xon

Стаж: 5 лет 8 месяцев

Сообщений: 27

Симпатии: 4

фильм и релиз дебильный !!!

Создавать темы 08-Авг-2015 16:27

[Профиль]  [ЛС] 
Показать сообщения:    
Ответить на тему

Текущее время: 15-Дек 00:03

Часовой пояс: UTC + 5



Вы не можете начинать темы
Вы не можете отвечать на сообщения
Вы не можете редактировать свои сообщения
Вы не можете удалять свои сообщения
Вы не можете голосовать в опросах
Вы не можете прикреплять файлы к сообщениям
Вы не можете скачивать файлы