Возвращение Супермена / Superman Returns (Брайан Сингер / Bryan Singer) [2006, США, фантастика, фэнтези, боевик, приключения, HDRip] [[2006, США, фантастика, фэнтези, боевик, приключения, HDRip] [Расширенная версия / Extende] (Dub : + Профессиональны

Ответить на тему
 

Phantom888 ®

Стаж: 4 года 1 месяц

Сообщений: 13

Симпатии: 24

Возвращение Супермена / Superman Returns / [2006, США, фантастика, фэнтези, боевик, приключения, HDRip] [Расширенная версия / Extende
Страна: США
Жанр: фантастика, фэнтези, боевик, приключения
Год выпуска: 2006
Продолжительность: 02:52:06
Перевод: Профессиональный (дублированный) Доп. инфо о переводе + Профессиональные (многоголосые) вставки на расши
Cубтитры: нет
Оригинальная аудиодорожка: английский
Режиссер: Брайан Сингер / Bryan Singer
В ролях: Брэндон Рут, Кейт Босворт, Кевин Спейси, Джеймс Марсден, Паркер Поузи, Фрэнк Ланджелла, Сэм Хантингтон, Ева Мари Сэйнт, Марлон Брандо, Кэл Пенн, Тристан Лэйк Либу, Дэвид Фабрицио, Йен Робертс, Винсент Стоун, Джек Ларсон, Ноэль Нилл, Джеймс Карен, Стефан Бендер, Пета Уилсон, Джефф Труман, Барбара Энджелл, Йен Блисс, Ансуя Нэйтан, Ричард Брэнсон, Сэм Брэнсон и др.
Описание: Возвратившись на Землю после своего многолетнего и загадочного отсутствия, Супермен обнаруживает, что его заклятый враг Лекс Лютор опять строит ему козни, а его возлюбленная Лоис Лэйн вроде бы уже устроила свою личную жизнь. Кроме того, Супермен понимает, что за то время, когда его не было, люди научились прекрасно обходиться без него.
Чтобы защитить мир, который он любит, от катастрофических разрушений, Супермену приходится преодолевать огромные расстояния: он опускается в океанские глубины и поднимается на космические высоты…
Доп. информация: НЕОФИЦИАЛЬНАЯ РАСШИРЕННАЯ ВЕРСИЯ блокбастера 2006 года «Возвращение Супермена».
Создавалась фанатами для фанатов. Включает в себя 20 минут дополнительных и расширенных эпизодов.
Качество видео: HDRip
Формат видео: AVI
Видео: 720x304 (2.37:1), 23.976 fps, XviD MPEG-4 ~2027 kbps avg, 0.39 bit/pixel
Аудио: 48 kHz, AC3 Dolby Digital, 2/0 (L,R) ch, ~192.00 kbps avg | Rus | DUB + MVO
Аудио 2: 48 kHz, AC3 Dolby Digital, 2/0 (L,R) ch, ~192.00 kbps avg | Eng | Original

MediaInfo

General
Complete name : Superman.Returns.Extended.Cut.2006.DUAL.HDRip.XviD.AC3.-Nesmertelnoe.oruzhie.avi
Format : AVI
Format/Info : Audio Video Interleave
Format profile : OpenDML
File size : 2.91 GiB
Duration : 2h 52mn
Overall bit rate : 2 418 Kbps
Movie name : Возвращение Супермена / Superman Returns / Расширенная версия / Extended Cut
Director : Творческое объединение "Несмертельное оружие"
Genre : Action/Fantasy
Writing application : VirtualDubMod 1.5.10.2 (build 2540/release)
Original source form/Name : Movie
Comment : http://vk.com/nesmertelnoe_oruzhie
Video
ID : 0
Format : MPEG-4 Visual
Format profile : Advanced [email protected]
Format settings, BVOP : 1
Format settings, QPel : No
Format settings, GMC : No warppoints
Format settings, Matrix : Default (MPEG)
Codec ID : XVID
Codec ID/Hint : XviD
Duration : 2h 52mn
Bit rate : 2 018 Kbps
Width : 720 pixels
Height : 304 pixels
Display aspect ratio : 2.35:1
Frame rate : 23.976 fps
Color space : YUV
Chroma subsampling : 4:2:0
Bit depth : 8 bits
Scan type : Progressive
Compression mode : Lossy
Bits/(Pixel*Frame) : 0.385
Stream size : 2.43 GiB (83%)
Writing library : XviD 64
Audio #1
ID : 1
Format : AC-3
Format/Info : Audio Coding 3
Mode extension : CM (complete main)
Format settings, Endianness : Big
Codec ID : 2000
Duration : 2h 52mn
Bit rate mode : Constant
Bit rate : 192 Kbps
Channel(s) : 2 channels
Channel positions : Front: L R
Sampling rate : 48.0 KHz
Bit depth : 16 bits
Compression mode : Lossy
Stream size : 236 MiB (8%)
Alignment : Split accross interleaves
Interleave, duration : 42 ms (1.00 video frame)
Interleave, preload duration : 500 ms
Title : [RUS] DUB + MVO
Audio #2
ID : 2
Format : AC-3
Format/Info : Audio Coding 3
Mode extension : CM (complete main)
Format settings, Endianness : Big
Codec ID : 2000
Duration : 2h 52mn
Bit rate mode : Constant
Bit rate : 192 Kbps
Channel(s) : 2 channels
Channel positions : Front: L R
Sampling rate : 48.0 KHz
Bit depth : 16 bits
Compression mode : Lossy
Stream size : 236 MiB (8%)
Alignment : Split accross interleaves
Interleave, duration : 42 ms (1.00 video frame)
Interleave, preload duration : 500 ms
Title : [ENG] Original

Скриншот c названием фильма

Скриншоты

Создавать темы 24-Июл-2015 05:27

[Профиль]  [ЛС] 
Показать сообщения:    
Ответить на тему

Текущее время: 22-Ноя 08:36

Часовой пояс: UTC + 5



Вы не можете начинать темы
Вы не можете отвечать на сообщения
Вы не можете редактировать свои сообщения
Вы не можете удалять свои сообщения
Вы не можете голосовать в опросах
Вы не можете прикреплять файлы к сообщениям
Вы не можете скачивать файлы