Паршивая овца / Black Sheep (Джонатан Кинг/ Jonathan King) [2006, Новая Зеландия, Комедия, Ужасы, BDRip] (Dub)

Ответить на тему
 

Phantom888 ®

Стаж: 4 года

Сообщений: 13

Симпатии: 24

Паршивая овца / Black Sheep
Страна: Новая Зеландия
Жанр: Комедия, Ужасы
Год выпуска: 2006
Продолжительность: 01:26:26
Перевод: Профессиональный (дублированный)
Cубтитры: нет
Режиссер: Джонатан Кинг/ Jonathan King
В ролях: Натан Майстер, Питер Вини, Даниэль Мэйсон, Тэмми Дэвис, Оливер Драйвер, Тэнди Райт, Гленис Левестам, Ник Блейк, Мэттью Чемберлен, Ник Фентон
Описание: Генри Олдфилд, панически боящийся овец и проходящий курс лечения, возвращается на ферму своего отца, чтобы продать дело своему старшему брату Ангусу. Он не знает, что на ферме происходит нечто оооочень страшное: Ангус безрассудно запустил программу генной инженерии.
Когда два ярых поборника защиты окружающей среды — не ведая что творят — выпускают мутанта-ягненка из лаборатории Ангуса на ферму, тысячи овец превращаются в кровожадных хищников. Вместе с помощником на ферме Такером и новоприбывшей девушкой Экспириенс Генри оказывается в самом сердце фермы как раз в то время, когда его самый страшный ночной кошмар становится явью.
Пробивая себе путь к безопасному месту, отважная троица обнаруживает, что худшее впереди: оказывается, что один укус инфицированной овцы странным и тревожным образом влияет на укушенных…
Качество видео: BDRip
Формат видео: AVI
Видео: 720x304 (2.37:1), 24 fps, XviD build 50 ~1947 kbps avg, 0.37 bit/pixel
Аудио: 48 kHz, AC3 Dolby Digital, 3/2 (L,C,R,l,r) + LFE ch, ~448.00 kbps avg

MediaInfo

General
Complete name : G:\Паршивая овца.avi
Format : AVI
Format/Info : Audio Video Interleave
File size : 1.45 GiB
Duration : 1h 26mn
Overall bit rate : 2 405 Kbps
Movie name : Parshivaya.ovtsa.2006.RUS.BDRip.XviD.AC3.-HQCLUB
Director : Orbit
Writing application : VirtualDubMod 1.5.10.2 (build 2542/release)
Copyright : hqclub.net
Comment : 20.11.2010
Video
ID : 0
Format : MPEG-4 Visual
Format profile : Advanced [email protected]
Format settings, BVOP : 1
Format settings, QPel : No
Format settings, GMC : No warppoints
Format settings, Matrix : Custom
Codec ID : XVID
Codec ID/Hint : XviD
Duration : 1h 26mn
Bit rate : 1 947 Kbps
Width : 720 pixels
Height : 304 pixels
Display aspect ratio : 2.35:1
Frame rate : 24.000 fps
Color space : YUV
Chroma subsampling : 4:2:0
Bit depth : 8 bits
Scan type : Progressive
Compression mode : Lossy
Bits/(Pixel*Frame) : 0.371
Stream size : 1.18 GiB (81%)
Writing library : XviD 1.2.1 (UTC 2008-12-04)
Audio
ID : 1
Format : AC-3
Format/Info : Audio Coding 3
Mode extension : CM (complete main)
Format settings, Endianness : Big
Codec ID : 2000
Duration : 1h 26mn
Bit rate mode : Constant
Bit rate : 448 Kbps
Channel(s) : 6 channels
Channel positions : Front: L C R, Side: L R, LFE
Sampling rate : 48.0 KHz
Bit depth : 16 bits
Compression mode : Lossy
Stream size : 277 MiB (19%)
Alignment : Split accross interleaves
Interleave, duration : 42 ms (1.00 video frame)
Interleave, preload duration : 500 ms

Скриншот c названием фильма

Скриншоты

Создавать темы 24-Июл-2015 05:41

[Профиль]  [ЛС] 
Показать сообщения:    
Ответить на тему

Текущее время: 19-Окт 08:51

Часовой пояс: UTC + 5



Вы не можете начинать темы
Вы не можете отвечать на сообщения
Вы не можете редактировать свои сообщения
Вы не можете удалять свои сообщения
Вы не можете голосовать в опросах
Вы не можете прикреплять файлы к сообщениям
Вы не можете скачивать файлы